BBC: Прогулки с динозаврами / Walking with Dinosaurs [серии 1-6 из 6] (Тим Хайнс, Джаспер Джеймс) [1999 г., Документальный, история, археология, динозавры, HDTVRip-AVC 720p]

 
Автор Сообщение

skorpionN ®

Пол:

Стаж: 2 года 6 месяцев

Сообщений: 806



Награды: 4 (Подробнее)

Mega Seeder 2 (Количество: 1) Mega Seeder 1 (Количество: 1) Top Releaser 2 (Количество: 1)
Торрент-статистика

Создавать темы 15-Июл-2017 10:52

[Цитировать]

BBC: Прогулки с динозаврами / Walking with Dinosaurs [серии 1-6 из 6]
Год выпуска: 1999
Страна: Великобритания, BBC
Жанр: Документальный, исследование, реконструкция
Продолжительность: 6x ~ 00:29:00
Перевод: Профессиональный (одноголосый), Николай Дроздов
Режиссер: Тим Хайнс, Джаспер Джеймс
Качество: HDTVRip-AVC
Формат: MKV
Видео кодек: H.264
Аудио кодек: AC3
Видео: 1280x720 29.970 fps 4500 Kbps
Аудио 1: (Rus) AC3 2ch, 48kHz, 192 kbps
Аудио 2: (En) AC3, 2 ch, 48 KHz, 192 Kbps
Описание: Эпоха динозавров длилась более 170 миллионов лет. Почему они вымерли и что произошло на планете Земля в те далекие времена, навсегда останется для нас загадкой.
В рамках уникального проекта компании BBC Worldwide «Прогулки с динозаврами» известные на сегодняшний день факты и гипотезы ученых соединены с новейшими цифровыми технологиями. Мы никогда не сможем вернуться в прошлое и увидеть, как жили динозавры, но благодаря сериалу «Прогулки с динозаврами» у нас появилась возможность представить, как это было. Авторы, воссоздав доисторический ландшафт, предложили стать свидетелем невероятного зрелища: увидеть, как динозавры охотились; узнать об их привычках, особенностях питания и размножении.
Список серий:

01. Новая кровь / New Blood

Историческая справка: 220 миллионов лет назад — поздний Триасовый период. Типичный представитель — целофизис (Coelophysis). Пища — хищник (мясо и рыба, иногда — падаль). Размеры — от 0.8 до 3.1 метра в длину, высота бедра — до 1 метра. Вес — до 35-40 килограммов. Основные скопления останков найдены в штатах Нью-Мексико и Аризона (США).

02. Время титанов / A Time of the Titans

Историческая справка: 152 миллиона лет назад — поздний Юрский период. Типичный представитель — диплодок (Diplodocus). Пища — травоядный (папоротники). Размеры — до 30 метров в длину, высота бедра — до 5 метров. Вес — до 30 тонн. Основные скопления останков найдены в штатах Монтана, Юта и Вайоминг (США).

03. Жестокое море / Cruel Sea

Историческая справка: 149 миллионов лет назад — поздний Юрский период. Типичный представитель — офтальмозавр (Ophthalmosaurus). Пища — хищник (рыба и кальмары). Размеры — до 5 метров в длину, череп — до 1 метра в длину. Вес — до 3 тонн. Основные скопления останков найдены в Аргентине, Англии и Германии.

04. Гиганты неба / Giant of the Skies

Историческая справка: 127 миллионов лет назад — ранний Меловой период. Типичный представитель — орнитохейрус (Ornithocheius). Образ жизни — индивидуальная миграция. Размеры — размах крыльев доходит до 12 метров, длина тела — до 3.5 метров, голова — до 1.5 метров в длину. Вес — до 100 килограммов. Основные скопления останков найдены в Бразилии и Англии.

05. Духи ледяного леса / Spirits of the Ice forest

Историческая справка: 100 миллионов лет назад — средний меловой период. Типичный представитель — лиелиназавр (Leaellynasaura). Пища — травоядный (папоротники). Размеры — до 2 метров в длину. Вес — до 10 килограммов. Основные скопления останков найдены в Австралии и Антарктиде.

06. Гибель династии / Death of a dynasty

Историческая справка: 66 миллионов лет назад — поздний меловой период. Типичный представитель — тираннозавр (Tyrannosaurus). Пища — хищник. Размеры — до 15 метров в длину, до 4 метров в высоту. Вес — до 2 тонн. Основные скопления останков найдены в США и Монголии.

Скриншоты


MediaInfo:

Format : Matroska
Format version : Version 4 / Version 2
File size : 1 020 MiB
Duration : 29 min 11 s
Overall bit rate mode : Variable
Overall bit rate : 4 885 kb/s
Encoded date : UTC 2017-07-13 12:27:45
Writing application : mkvmerge v6.9.1 ('Blue Panther') 64bit built on Apr 18 2014 18:23:38
Writing library : libebml v1.3.0 + libmatroska v1.4.1
Video
ID : 1
Format : AVC
Format/Info : Advanced Video Codec
Format profile : High@L4.1
Format settings, CABAC : Yes
Format settings, ReFrames : 3 frames
Codec ID : V_MPEG4/ISO/AVC
Duration : 29 min 11 s
Bit rate mode : Variable
Bit rate : 4 500 kb/s
Maximum bit rate : 8 000 kb/s
Width : 1 280 pixels
Height : 720 pixels
Display aspect ratio : 16:9
Frame rate mode : Constant
Frame rate : 29.970 (30000/1001) FPS
Standard : NTSC
Color space : YUV
Chroma subsampling : 4:2:0
Bit depth : 8 bits
Scan type : Progressive
Bits/(Pixel*Frame) : 0.163
Stream size : 920 MiB (90%)
Writing library : x264 core 114
Encoding settings : cabac=1 / ref=3 / deblock=1:0:0 / analyse=0x3:0x113 / me=hex / subme=7 / psy=1 / psy_rd=1.00:0.00 / mixed_ref=1 / me_range=16 / chroma_me=1 / trellis=1 / 8x8dct=1 / cqm=2 / deadzone=21,11 / fast_pskip=1 / chroma_qp_offset=-4 / threads=6 / sliced_threads=0 / slices=1 / nr=0 / decimate=1 / interlaced=0 / constrained_intra=0 / bframes=3 / b_pyramid=0 / b_adapt=1 / b_bias=0 / direct=1 / weightb=1 / open_gop=0 / weightp=2 / keyint=250 / keyint_min=25 / scenecut=40 / intra_refresh=0 / rc_lookahead=40 / rc=2pass / mbtree=1 / bitrate=4500 / ratetol=1.0 / qcomp=0.60 / qpmin=5 / qpmax=69 / qpstep=4 / cplxblur=20.0 / qblur=0.5 / vbv_maxrate=8000 / vbv_bufsize=7995 / nal_hrd=vbr / ip_ratio=1.40 / aq=1:1.00
Default : Yes
Forced : No
Color range : Limited
Color primaries : BT.709
Transfer characteristics : BT.709
Matrix coefficients : BT.709
Audio #1
ID : 2
Format : AC-3
Format/Info : Audio Coding 3
Mode extension : CM (complete main)
Format settings, Endianness : Big
Codec ID : A_AC3
Duration : 29 min 11 s
Bit rate mode : Constant
Bit rate : 192 kb/s
Channel(s) : 2 channels
Channel positions : Front: L R
Sampling rate : 48.0 kHz
Frame rate : 31.250 FPS (1536 spf)
Compression mode : Lossy
Stream size : 40.1 MiB (4%)
Language : Russian
Default : Yes
Forced : No
Audio #2
ID : 3
Format : AC-3
Format/Info : Audio Coding 3
Mode extension : CM (complete main)
Format settings, Endianness : Big
Codec ID : A_AC3
Duration : 29 min 11 s
Bit rate mode : Constant
Bit rate : 192 kb/s
Channel(s) : 2 channels
Channel positions : Front: L R
Sampling rate : 48.0 kHz
Frame rate : 31.250 FPS (1536 spf)
Compression mode : Lossy
Stream size : 40.1 MiB (4%)
Language : English
Default : No
Forced : Yes
BBC: Прогулки с чудовищами / Walking with Beasts [серии 1-6 из 6]
BBC: Прогулки с динозаврами / Walking with Dinosaurs [серии 1-6 из 6]
BBC: Прогулки с динозаврами: Баллада о большом Але (спецвыпуск) / Walking With Dinosaurus: The Ballad Of Big Al [серии 1-2 из 2]
[Профиль] [ЛС]
Кто просматривает тему:

Показать сообщения:    

Текущее время: Сегодня 07:33

Часовой пояс: GMT



Вы не можете начинать темы
Вы не можете отвечать на сообщения
Вы не можете редактировать свои сообщения
Вы не можете удалять свои сообщения
Вы не можете голосовать в опросах
Вы не можете прикреплять файлы к сообщениям
Вы не можете скачивать файлы