BBC: Прогулки с динозаврами: Баллада о большом Але (спецвыпуск) / Walking With Dinosaurs: The Ballad Of Big Al [серии 1-2 из 2] (Кейт Бартлетт, Майкл Олмерт) [2000 г., Документальный, история, археология, HDTVRip-AVC]

 
Автор Сообщение

skorpionN ®

Пол:

Стаж: 2 года 8 месяцев

Сообщений: 858



Награды: 4 (Подробнее)

Mega Seeder 1 (Количество: 1) Mega Seeder 3 (Количество: 1) Mega Seeder 2 (Количество: 1)
Торрент-статистика

Создавать темы 18-Июл-2017 12:56

[Цитировать]

BBC: Прогулки с динозаврами: Баллада о большом Але (спецвыпуск) / Walking With Dinosaurs: The Ballad Of Big Al [серии 1-2 из 2]
Год выпуска: 2000
Страна: Великобритания, BBC Worldwide Ltd.
Жанр: Документальный, история, археология
Продолжительность: 2x~00:29:00
Перевод: Профессиональный (одноголосый)
Режиссер: Кейт Бартлетт, Майкл Олмерт
В ролях: Кеннет Брана, Эйвери Брукс
Описание: В 1991 году в Вайоминге (США) найден практически полностью сохранившийся окаменевший скелет огромного самца аллозавра, получившего прозвище "Большой Ал". Многочисленные травмы и переломы ребер, ног и позвоночника, полученные Алом при жизни, позволили ученым воссоздать его историю, наполненную удивительными событиями и захватывающими приключениями, с момента рождения и до трагической гибели. В фильме использованы уникальные компьютерные технологии, применявшиеся при создании "Парка Юрского периода", с помощью которых перед зрителем с потрясающей воображение реалистичностью оживает древний мир доисторических гигантов, населявших когда-то нашу планету. Вы увидите, как динозавры охотятся, выводят потомство и общаются друг с другом. Во многих странах мира фильм "Прогулки с динозаврами" признан самым увлекательным телевизионным шоу последних 200 миллионов лет.
Качество: HDTVRip-AVC
Формат: MKV
Видео кодек: H.26x
Аудио кодек: AC3
Видео: 1280x720 29.970 fps 4500 Kbps
Аудио 1: (Rus) AC3 2ch, 48kHz, 192 kbps
Аудио 2: (En) AC3, 2 ch, 48 KHz, 192 Kbps

Скриншоты


MediaInfo:

Format : Matroska
Format version : Version 4 / Version 2
File size : 1 011 MiB
Duration : 28 min 58 s
Overall bit rate mode : Variable
Overall bit rate : 4 878 kb/s
Encoded date : UTC 2017-07-18 09:02:48
Writing application : mkvmerge v6.9.1 ('Blue Panther') 64bit built on Apr 18 2014 18:23:38
Writing library : libebml v1.3.0 + libmatroska v1.4.1
Video
ID : 1
Format : AVC
Format/Info : Advanced Video Codec
Format profile : High@L4.1
Format settings, CABAC : Yes
Format settings, ReFrames : 3 frames
Codec ID : V_MPEG4/ISO/AVC
Duration : 28 min 58 s
Bit rate mode : Variable
Bit rate : 4 500 kb/s
Maximum bit rate : 8 000 kb/s
Width : 1 280 pixels
Height : 720 pixels
Display aspect ratio : 16:9
Frame rate mode : Constant
Frame rate : 29.970 (30000/1001) FPS
Standard : NTSC
Color space : YUV
Chroma subsampling : 4:2:0
Bit depth : 8 bits
Scan type : Progressive
Bits/(Pixel*Frame) : 0.163
Stream size : 911 MiB (90%)
Writing library : x264 core 114
Encoding settings : cabac=1 / ref=3 / deblock=1:0:0 / analyse=0x3:0x113 / me=hex / subme=7 / psy=1 / psy_rd=1.00:0.00 / mixed_ref=1 / me_range=16 / chroma_me=1 / trellis=1 / 8x8dct=1 / cqm=2 / deadzone=21,11 / fast_pskip=1 / chroma_qp_offset=-4 / threads=6 / sliced_threads=0 / slices=1 / nr=0 / decimate=1 / interlaced=0 / constrained_intra=0 / bframes=3 / b_pyramid=0 / b_adapt=1 / b_bias=0 / direct=1 / weightb=1 / open_gop=0 / weightp=2 / keyint=250 / keyint_min=25 / scenecut=40 / intra_refresh=0 / rc_lookahead=40 / rc=2pass / mbtree=1 / bitrate=4500 / ratetol=1.0 / qcomp=0.60 / qpmin=5 / qpmax=69 / qpstep=4 / cplxblur=20.0 / qblur=0.5 / vbv_maxrate=8000 / vbv_bufsize=7995 / nal_hrd=vbr / ip_ratio=1.40 / aq=1:1.00
Default : Yes
Forced : No
Color range : Limited
Color primaries : BT.709
Transfer characteristics : BT.709
Matrix coefficients : BT.709
Audio #1
ID : 2
Format : AC-3
Format/Info : Audio Coding 3
Mode extension : CM (complete main)
Format settings, Endianness : Big
Codec ID : A_AC3
Duration : 28 min 58 s
Bit rate mode : Constant
Bit rate : 192 kb/s
Channel(s) : 2 channels
Channel positions : Front: L R
Sampling rate : 48.0 kHz
Frame rate : 31.250 FPS (1536 spf)
Compression mode : Lossy
Stream size : 39.8 MiB (4%)
Language : Russian
Default : Yes
Forced : No
Audio #2
ID : 3
Format : AC-3
Format/Info : Audio Coding 3
Mode extension : CM (complete main)
Format settings, Endianness : Big
Codec ID : A_AC3
Duration : 28 min 58 s
Bit rate mode : Constant
Bit rate : 192 kb/s
Channel(s) : 2 channels
Channel positions : Front: L R
Sampling rate : 48.0 kHz
Frame rate : 31.250 FPS (1536 spf)
Compression mode : Lossy
Stream size : 39.8 MiB (4%)
Language : English
Default : No
Forced : Yes
BBC: Прогулки с чудовищами / Walking with Beasts [серии 1-6 из 6]
BBC: Прогулки с динозаврами / Walking with Dinosaurs [серии 1-6 из 6]
BBC: Прогулки с динозаврами: Баллада о большом Але (спецвыпуск) / Walking With Dinosaurus: The Ballad Of Big Al [серии 1-2 из 2]


Последний раз редактировалось: skorpionN (2017-07-19 14:09), всего редактировалось 1 раз
[Профиль] [ЛС]

ARI71

Стаж: 1 год 3 месяца

Сообщений: 82



Награды: Нет

Торрент-статистика

Создавать темы 18-Июл-2017 15:08 (спустя 2 часа 11 минут)

[Цитировать]

Merci beaucoup
[Профиль] [ЛС]
Кто просматривает тему:

Показать сообщения:    

Текущее время: Сегодня 05:52

Часовой пояс: GMT



Вы не можете начинать темы
Вы не можете отвечать на сообщения
Вы не можете редактировать свои сообщения
Вы не можете удалять свои сообщения
Вы не можете голосовать в опросах
Вы не можете прикреплять файлы к сообщениям
Вы не можете скачивать файлы