BBC: Преступники Британии. Разбойники с большой дороги, пираты и мошенники / Britain's Outlaws. Highwaymen, Pirates and Rogues [серии 1-3 из 3] (Andy Hall, Matthew Thomas, Gerry Dawson) [2015 г., Документальный, история, исследования, HDTVRip 72

 
Автор Сообщение

skorpionN ®

Пол:

Стаж: 1 год 8 месяцев

Сообщений: 591



Награды: 4 (Подробнее)

Top Releaser 2 (Количество: 1) Mega Seeder 2 (Количество: 1) Mega Seeder 3 (Количество: 1)
Торрент-статистика

Создавать темы 06-Июл-2016 08:50

[Цитировать]

BBC: Преступники Британии. Разбойники с большой дороги, пираты и мошенники / Britain's Outlaws. Highwaymen, Pirates and Rogues [серии 1-3 из 3]
Год выпуска: 2015
Страна: Великобритания, BBC Arts Production Bristol
Жанр: Документальный, история, исследования
Продолжительность: 3x~00:59:15
Перевод: Профессиональный (одноголосый), переведено и озвучено на студии "SDI Media", перевод Ольги Юлдашевой, текст читает Михаил Карасиков
Режиссер: Andy Hall, Matthew Thomas, Gerry Dawson
В ролях: Ведущий- историк доктор Сэм Уиллис
Описание: Несколько исторических фигур Британии запомнились людям как беззаконники. Благодаря своим дерзким выходкам и романтике жизни вне закона разбойники, удалые пираты, неуловимые городские воры и бандиты стали самыми известными антигероями своего времени. Их боялись богачи, ими восхищались бедные, а писатели посвящали им книги. В этой трёхсерийной передаче доктор исторических наук Сэм Уиллис отправится в путешествие по дорогам, морям и кривым улочкам, чтобы исследовать тайную жизнь разбойников, пиратов и бандитов Британии XVII-XVIII веков. Сэм покажет нам, что беззаконники - это не просто изгнанники, а ещё и продукт своего времени, созданный ключевыми социальными событиями. В каждом выпуске Сэм будет подробно рассказывать не только о каком-то определённом персонаже, а о целой эре, благодаря чему мы получим более точную картину преступной жизни XVII-XVIII веков.
Список серий:
01. Разбойники большой дороги. История разбойников / The Highwayman's Story
Доктор Сэм Уиллис расскажет нам о новом виде преступников-джентльменов, о разбойниках с большой дороги. Их романтизировали больше всего, эти пафосные гангстеры стали настоящим проклятием дорог.
02. Пираты / Pirates
Доктор Сэм Уиллис отправляется покорять моря, как это делали удалые пираты в свой золотой XVIII век. Он постарается узнать подробнее, что именно делало их самыми разыскиваемыми преступниками
в мире.
03. Мошенники (Жулики) / Rogues
В этой серии доктор Сэм Уиллис прольёт нам свет на городскую чуму XVIII века, о мошенниках всех мастей - об обольстителях, бандитах и ворах
Качество: HDTVRip 720p
Формат: MKV
Видео кодек: H.264
Аудио кодек: AC3
Видео: 1280x720 25.00fps 4000 Kbps
Аудио 1: (Rus) AC3 2ch, 48kHz, 192 kbps
Аудио 2: (En) AC3 2ch, 48kHz, 192 kbps

MediaInfo:

Format : Matroska
Format version : Version 4 / Version 2
File size : 1.81 GiB
Duration : 59mn 14s
Overall bit rate mode : Variable
Overall bit rate : 4 378 Kbps
Encoded date : UTC 2016-07-06 07:29:23
Writing application : mkvmerge v6.9.1 ('Blue Panther') 64bit built on Apr 18 2014 18:23:38
Writing library : libebml v1.3.0 + libmatroska v1.4.1
Video
ID : 1
Format : AVC
Format/Info : Advanced Video Codec
Format profile : High@L4.1
Format settings, CABAC : Yes
Format settings, ReFrames : 3 frames
Codec ID : V_MPEG4/ISO/AVC
Duration : 59mn 14s
Bit rate mode : Variable
Bit rate : 4 000 Kbps
Maximum bit rate : 8 000 Kbps
Width : 1 280 pixels
Height : 720 pixels
Display aspect ratio : 16:9
Frame rate mode : Constant
Frame rate : 25.000 fps
Standard : NTSC
Color space : YUV
Chroma subsampling : 4:2:0
Bit depth : 8 bits
Scan type : Progressive
Bits/(Pixel*Frame) : 0.174
Stream size : 1.62 GiB (89%)
Writing library : x264 core 114
Encoding settings : cabac=1 / ref=3 / deblock=1:0:0 / analyse=0x3:0x113 / me=hex / subme=7 / psy=1 / psy_rd=1.00:0.00 / mixed_ref=1 / me_range=16 / chroma_me=1 / trellis=1 / 8x8dct=1 / cqm=2 / deadzone=21,11 / fast_pskip=1 / chroma_qp_offset=-4 / threads=6 / sliced_threads=0 / slices=1 / nr=0 / decimate=1 / interlaced=0 / constrained_intra=0 / bframes=3 / b_pyramid=0 / b_adapt=1 / b_bias=0 / direct=1 / weightb=1 / open_gop=0 / weightp=2 / keyint=250 / keyint_min=25 / scenecut=40 / intra_refresh=0 / rc_lookahead=40 / rc=2pass / mbtree=1 / bitrate=4000 / ratetol=1.0 / qcomp=0.60 / qpmin=5 / qpmax=69 / qpstep=4 / cplxblur=20.0 / qblur=0.5 / vbv_maxrate=8000 / vbv_bufsize=7995 / nal_hrd=vbr / ip_ratio=1.40 / aq=1:1.00
Default : Yes
Forced : No
Color range : Limited
Color primaries : BT.709
Transfer characteristics : BT.709
Matrix coefficients : BT.709
Audio #1
ID : 2
Format : AC-3
Format/Info : Audio Coding 3
Mode extension : CM (complete main)
Format settings, Endianness : Big
Codec ID : A_AC3
Duration : 59mn 14s
Bit rate mode : Constant
Bit rate : 192 Kbps
Channel(s) : 2 channels
Channel positions : Front: L R
Sampling rate : 48.0 KHz
Frame rate : 31.250 fps (1536 spf)
Compression mode : Lossy
Stream size : 81.4 MiB (4%)
Language : Russian
Default : Yes
Forced : No
Audio #2
ID : 3
Format : AC-3
Format/Info : Audio Coding 3
Mode extension : CM (complete main)
Format settings, Endianness : Big
Codec ID : A_AC3
Duration : 59mn 14s
Bit rate mode : Constant
Bit rate : 192 Kbps
Channel(s) : 2 channels
Channel positions : Front: L R
Sampling rate : 48.0 KHz
Frame rate : 31.250 fps (1536 spf)
Compression mode : Lossy
Stream size : 81.4 MiB (4%)
Language : English
Default : No
Forced : No

Внимание:

Раздача ведётся путём добавления новых серий; при каждом добавлении создаётся новый торрент. Чтобы начать докачку новой серии, пользователям необходимо сделать следующее:
- Остановить скачивание.
- Удалить старый торрент у себя из клиента (старые серии удалять не надо).
- Скачать новый торрент и запустить его у себя в клиенте вместо старого, при этом указать клиенту путь в старую папку куда и должно происходить скачивание новых серий.
Добавлено
03. Мошенники (Жулики) / Rogues


Последний раз редактировалось: skorpionN (2016-07-19 20:26), всего редактировалось 5 раз(а)
[Профиль] [ЛС]

KiruhaDelMar

Стаж: 1 год 8 месяцев

Сообщений: 247



Награды: Нет

Торрент-статистика

Создавать темы 06-Июл-2016 09:01 (спустя 10 минут)

[Цитировать]

Опаньки
[Профиль] [ЛС]

Таисия

Стаж: 1 год 8 месяцев

Сообщений: 37



Награды: 1 (Подробнее)

Girls (Количество: 1)
Торрент-статистика

Создавать темы 12-Июл-2016 16:06 (спустя 6 дней)

[Цитировать]

СПАСИБОЧКИ, дорогой....Пишу.....
[Профиль] [ЛС]
Кто просматривает тему:

Показать сообщения:    

Текущее время: Сегодня 10:09

Часовой пояс: GMT



Вы не можете начинать темы
Вы не можете отвечать на сообщения
Вы не можете редактировать свои сообщения
Вы не можете удалять свои сообщения
Вы не можете голосовать в опросах
Вы не можете прикреплять файлы к сообщениям
Вы не можете скачивать файлы