BBC: Постигая звёздное небо / Stargazing Live [сезон 3 серия 1-3 из 3] (Barbara Wiltshire) [2013 г., Документальный, научно-познавательный, космос, SATRip]

 
Автор Сообщение

skorpionN ®

Пол:

Стаж: 1 год 8 месяцев

Сообщений: 588



Награды: 4 (Подробнее)

Mega Seeder 1 (Количество: 1) Mega Seeder 3 (Количество: 1) Mega Seeder 2 (Количество: 1)
Торрент-статистика

Создавать темы 02-Авг-2015 15:55

[Цитировать]

BBC: Постигая звёздное небо / Stargazing Live [сезон 3 серия 1- 3 из 3]
Год выпуска: 2013
Страна: Великобритания, BBC
Жанр: Документальный, научно-познавательный, космос
Продолжительность: 3x~00:48:02
Перевод: Профессиональный (двухголосый), компания "Видеофильм ТВ"
Режиссер: Barbara Wiltshire
В ролях: ведущие - Brian Cox, Dara O'Briain
Описание: Такое огромное, бескрайнее и глубокое небо. Миллионы лет миллиарды глаз смотрят вверх и пытаются разгадать, что же там, и почему нас туда так тянет. Дара О'Бриэн и профессор Брайан Кокс приглашают нас в космическое путешествие - наше удивительную ночное небо.
Серии:
01. В этой серии они займутся поиском доказательств жизни на Марсе и попросят зрителей о помощи, чтобы исследовать неизведанные области поверхности Красной планеты. Лиз Бонин, в прямом эфире из управления полетами NASA, сообщает последние данные о Curiosity Rover, в то время как Марк Томпсон даст нам советы о том, как наблюдать спутники Юпитера.
02. Дара и Брайан продолжают своё путешествие по ночному небу и попытаются открыть тайну происхождения Вселенной, глядя через миллионы световых лет в глубины космоса. Между тем, Марк Томпсон показывает, что можно извлечь из цвета звезд, а в NASA команда из специалистов строят крупнейший космический телескоп в мире, инструмент, который будет в 100 раз более мощным, чем Хаббл.
03. В заключительной серии ночных астрономических приключения, Брайан и Дара обсудят вопросы метеоров, комет, астероидов и попробуют показать, как исследования этих объектов помогают в решении вопросов о происхождении жизни на Земле. Лиз Бонин поговорит с командой ученых НАСА, которым поручено отслеживать любые космические объекты, находящиеся на околоземной орбите. Узнаем как можно создать астероид на Земле и посмотрим на звёздное небо в телескоп Гершеля.
Качество: SATRip
Формат: AVI
Видео кодек: XviD
Аудио кодек: AC3
Видео: 720x400 25fps 1800kbps
Аудио: AC3 2ch, 48kHz, 192 kbps

Скриншоты


MediaInfo:

Format : AVI
Format/Info : Audio Video Interleave
File size : 686 MiB
Duration : 48mn 1s
Overall bit rate : 1 998 Kbps
Writing application : TMPGEnc Video Mastering Works 5 Version. 5.0.6.38
Writing library : TMPGEnc Video Mastering Works 5 Version. 5.0.6.38
Video
ID : 0
Format : MPEG-4 Visual
Format profile : Advanced Simple@L5
Format settings, BVOP : 2
Format settings, QPel : No
Format settings, GMC : No warppoints
Format settings, Matrix : Default (H.263)
Muxing mode : Packed bitstream
Codec ID : XVID
Codec ID/Hint : XviD
Duration : 48mn 1s
Bit rate : 1 798 Kbps
Width : 720 pixels
Height : 400 pixels
Display aspect ratio : 16:9
Frame rate : 25.000 fps
Color space : YUV
Chroma subsampling : 4:2:0
Bit depth : 8 bits
Scan type : Progressive
Compression mode : Lossy
Bits/(Pixel*Frame) : 0.250
Stream size : 618 MiB (90%)
Writing library : XviD 73
Audio
ID : 1
Format : AC-3
Format/Info : Audio Coding 3
Mode extension : CM (complete main)
Format settings, Endianness : Big
Codec ID : 2000
Duration : 48mn 1s
Bit rate mode : Constant
Bit rate : 192 Kbps
Channel(s) : 2 channels
Channel positions : Front: L R
Sampling rate : 48.0 KHz
Compression mode : Lossy
Stream size : 66.0 MiB (10%)
Alignment : Aligned on interleaves
Interleave, duration : 240 ms (6.00 video frames)
Interleave, preload duration : 224 ms

Внимание:

Раздача ведётся путём добавления новых серий; при каждом добавлении создаётся новый торрент. Чтобы начать докачку новой серии, пользователям необходимо сделать следующее:
- Остановить скачивание.
- Удалить старый торрент у себя из клиента (старые серии удалять не надо).
- Скачать новый торрент и запустить его у себя в клиенте вместо старого, при этом указать клиенту путь в старую папку куда и должно происходить скачивание новых серий.
BBC: Постигая звёздное небо / Stargazing Live [сезон 3 серия 1-3 из 3]
BBC: Постигая звёздное небо / Stargazing Live [сезон 4 серия 1-3 из 3]


Последний раз редактировалось: skorpionN (2015-09-07 07:21), всего редактировалось 12 раз(а)
[Профиль] [ЛС]

KiruhaDelMar

Стаж: 1 год 8 месяцев

Сообщений: 247



Награды: Нет

Торрент-статистика

Создавать темы 02-Авг-2015 16:19 (спустя 24 минуты)

[Цитировать]

оперативность как всегда хромает bt
[Профиль] [ЛС]

skorpionN ®

Пол:

Стаж: 1 год 8 месяцев

Сообщений: 588



Награды: 4 (Подробнее)

Mega Seeder 1 (Количество: 1) Mega Seeder 3 (Количество: 1) Top Releaser 2 (Количество: 1)
Торрент-статистика

Создавать темы 02-Авг-2015 18:54 (спустя 2 часа 35 минут)

[Цитировать]

71444оперативность как всегда хромает bt
Кто бы говорил?
[Профиль] [ЛС]

KiruhaDelMar

Стаж: 1 год 8 месяцев

Сообщений: 247



Награды: Нет

Торрент-статистика

Создавать темы 02-Авг-2015 19:11 (спустя 16 минут)

[Цитировать]

А то ты не в курсе.... Говорит тот кто эту киношку еще вчера на ютюб слил tease
[Профиль] [ЛС]

skorpionN ®

Пол:

Стаж: 1 год 8 месяцев

Сообщений: 588



Награды: 4 (Подробнее)

Mega Seeder 3 (Количество: 1) Mega Seeder 2 (Количество: 1) Top Releaser 2 (Количество: 1)
Торрент-статистика

Создавать темы 08-Авг-2015 18:43 (спустя 5 дней)

[Цитировать]

Ну как, оперативность как всегда хромает bt
[Профиль] [ЛС]
Кто просматривает тему:

Показать сообщения:    

Текущее время: Сегодня 08:58

Часовой пояс: GMT



Вы не можете начинать темы
Вы не можете отвечать на сообщения
Вы не можете редактировать свои сообщения
Вы не можете удалять свои сообщения
Вы не можете голосовать в опросах
Вы не можете прикреплять файлы к сообщениям
Вы не можете скачивать файлы