BBC: Последние царственные воины Европы (1066: Год, чтобы покорить Англию) / Europe's Last Warrior Kings (1066: A Year to Conquer England) [серии 1-3 из 3](Tim Dunn, Robin Dashwood) [2016 г., Доку-драма, история, HDTV 720p]

 
Автор Сообщение

skorpionN ®

Пол:

Стаж: 2 года 6 месяцев

Сообщений: 803



Награды: 4 (Подробнее)

Top Releaser 2 (Количество: 1) Mega Seeder 1 (Количество: 1) Mega Seeder 3 (Количество: 1)
Торрент-статистика

Создавать темы 26-Май-2017 15:11

[Цитировать]

BBC: Последние царственные воины Европы (1066: Год, чтобы покорить Англию) / Europe's Last Warrior Kings (1066: A Year to Conquer England) [серии 1-3 из 3]
Год выпуска: 2016
Страна: Великобритания, ВВС
Жанр: Доку-драма, история
Продолжительность: 3x~00:58:46
Перевод: Профессиональный (одноголосый), переведено и озвучено на студии SDI Media, перевод Елизаветы Неймышевой текст читает Сергей Пономарев
Режиссер: Tim Dunn, Robin Dashwood
В ролях: Jotham Annan, Andrew Havill, Tom Holland, Adam James, Simon Meacock, Freya Parker, Tim Preece, Alun Raglan, Janina Ramirez, Clive Russell, Dan Snow, David Sterne, Juliet Stevenson, Ed Stoppard, Dan Jones
Описание: Это рассказ о трех королях, трех битвах и трех вторжениях, о 12-ти месяцах изменивших Британию. Английских король Гарольд II, герцог Нормандии Вильгельм и король викингов Харальд III. Все они встретились в череде кровавых битв, которые положили конец террора викингов. Тысячу лет назад они сражались во имя славы - за власть над небольшим островом на краю Европы. Двое погибнут в бою в течение года. Один останется победителем и получит богатство и власть, о которой он никогда не мечтал. Анализируя древние документы, мы представим историю жажды власти и богатства, борьбы веры и культуры, мифы о семейных спорах и предательствах, которые изменили Европу. Военный историк Дэн Сноу побывает в тех местах, где эта история имела место. Три части этой уникальной истории и яркой инсценировки жестокого мира Средневековья.
Качество: HDTV
Формат: MPEG -TS
Видео кодек: H.264
Аудио кодек: MPEG Audio
Видео: 1280x720 50.00fps ~7200-7600 Kbps
Аудио 1: (Rus) MP2 2ch, 48kHz, 128 kbps
Аудио 2: (En) MP2 2ch, 48kHz, 128 kbps
Субтитры: Английские, отдельным файлом

Скриншоты


MediaInfo:

Format : MPEG-TS
File size : 3.20 GiB
Duration : 58 min 45 s
Overall bit rate mode : Variable
Overall bit rate : 7 803 kb/s
Video
ID : 4113 (0x1011)
Menu ID : 1 (0x1)
Format : AVC
Format/Info : Advanced Video Codec
Format profile : High@L4
Format settings, CABAC : Yes
Format settings, ReFrames : 5 frames
Codec ID : 27
Duration : 58 min 45 s
Bit rate mode : Variable
Bit rate : 7 159 kb/s
Maximum bit rate : 40.0 Mb/s
Width : 1 280 pixels
Height : 720 pixels
Display aspect ratio : 16:9
Frame rate : 50.000 FPS
Standard : Component
Color space : YUV
Chroma subsampling : 4:2:0
Bit depth : 8 bits
Scan type : Progressive
Bits/(Pixel*Frame) : 0.155
Stream size : 2.94 GiB (92%)
Color range : Limited
Color primaries : BT.709
Transfer characteristics : BT.709
Matrix coefficients : BT.709
Audio #1
ID : 4352 (0x1100)
Menu ID : 1 (0x1)
Format : MPEG Audio
Format version : Version 1
Format profile : Layer 2
Codec ID : 3
Duration : 58 min 45 s
Bit rate mode : Constant
Bit rate : 128 kb/s
Channel(s) : 2 channels
Sampling rate : 48.0 kHz
Compression mode : Lossy
Delay relative to video : -80 ms
Stream size : 53.8 MiB (2%)
Language : Russian
Audio #2
ID : 4353 (0x1101)
Menu ID : 1 (0x1)
Format : MPEG Audio
Format version : Version 1
Format profile : Layer 2
Codec ID : 3
Duration : 58 min 45 s
Bit rate mode : Constant
Bit rate : 128 kb/s
Channel(s) : 2 channels
Sampling rate : 48.0 kHz
Compression mode : Lossy
Delay relative to video : -80 ms
Stream size : 53.8 MiB (2%)
Language : English

Внимание! Раздача ведётся путём добавления новых серий

При каждом добавлении создаётся новый торрент.
Чтобы начать докачку новой серии, пользователям необходимо сделать следующее:
1. Остановить скачивание.
2. Удалить старый торрент у себя из клиента (старые серии удалять не надо).
3. Скачать новый торрент и запустить его у себя в клиенте вместо старого, при этом указать клиенту путь в старую папку куда и должно происходить скачивание новых серий.
Ваш клиент при этом должен произвести хеширование (проверку) старой папки (если не производит сам - помогите ему сделать это), и будет докачивать только те серии которых у вас ещё нет. Старые серии при этом не удаляются, а продолжают раздаваться!
Eсли вы уже удалили старые серии, то предотвратить повторную закачку старых серий можно, отжав галочку в соответствующих местах при запуске нового торрента. По возможности, желательно не удалять старые серии как можно дольше чтобы релизёр не столько продолжал раздавать старые серии, а смог сконцентрироваться на новых.
Добавлено:
3 серия
[Профиль] [ЛС]
Кто просматривает тему:

Показать сообщения:    

Текущее время: Сегодня 03:20

Часовой пояс: GMT



Вы не можете начинать темы
Вы не можете отвечать на сообщения
Вы не можете редактировать свои сообщения
Вы не можете удалять свои сообщения
Вы не можете голосовать в опросах
Вы не можете прикреплять файлы к сообщениям
Вы не можете скачивать файлы