BBC: Повседневные чудеса / Everyday Miracles [серии 1-2 из 2] (Петер Леонард / Peter Leonard) [2014 г., Документальный, технологии, инновации, дизайн, путешествия, HDTVRip 720p]

 
Автор Сообщение

skorpionN ®

Пол:

Стаж: 3 года 7 месяцев

Сообщений: 944



Награды: 4 (Подробнее)

Mega Seeder 3 (Количество: 1) Mega Seeder 1 (Количество: 1) Top Releaser 2 (Количество: 1)
Торрент-статистика

Создавать темы 05-Дек-2016 11:59

[Цитировать]

BBC: Повседневные чудеса / Everyday Miracles [серии 1-2 из 2]
Год выпуска: 2014
Страна: Великобритания, BBC, The Open University, Science Production London
Жанр: Документальный, технологии, инновации, дизайн, путешествия
Продолжительность: 2x~00:57:26
Перевод: Профессиональный (двухголосый)
Режиссер: Петер Леонард / Peter Leonard
В ролях: ведущий - профессор Mарк Миодовник / Mark Miodownik
Описание: Британский инженер и ученый Марк Миодовник рассказывает о тысячах вещей, с которыми мы сталкиваемся каждый день. Одни кажутся совсем простыми, о других мы даже не задумываемся. Однако внешние атрибуты современной жизни и то, из чего они сделаны, сильно преобразили наш мир, предоставив нам комфорт, наслаждение и власть. За ними кроется история тайных преображений, доказательство тому, что мы живем в эпоху чудес, где слабый и хрупкий может стать сильнее всех, а машины создают части человеческого тела. Эти новшества преобразили наш мир, эти материалы помогли нам создать комфортный мир. Вы также познакомитесь с удивительными людьми, создавшими наши повседневные вещи. Это истинные гении массового производства, которые так великолепно изучили материалы вокруг себя, что сумели преобразить их в то, что улучшает повседневную жизнь и определяет облик нашего мира.
Список серий:
01. Наш дом / Home
Мы поговорим о том, как материалы, спрос и инновации подарили нам идеальный дом и воплотили в жизнь нашу мечту о потреблении.
02. За горизонтом / Away
Фильм рассказывает о трансформациях материалов, которые уводят нас из дома: автомобили и транспорт, компьютер и работа, фаст-фуд и досуг.
Качество: HDTVRip 720p
Формат: MKV
Видео кодек: H.264
Аудио кодек: AC3
Видео: 1280x720 25.00 fps 4000 kbps
Аудио 1: (Rus) AC3 2ch, 48kHz, 192 kbps
Аудио 2: (En) AC3 2ch, 48kHz, 192 kbps

Скриншоты


MediaInfo:

ormat : Matroska
Format version : Version 4 / Version 2
File size : 1.76 GiB
Duration : 57 min 26 s
Overall bit rate mode : Variable
Overall bit rate : 4 386 kb/s
Encoded date : UTC 2016-12-05 11:36:18
Writing application : mkvmerge v7.3.0 ('Nouages') 64bit built on Oct 22 2014 18:53:34
Writing library : libebml v1.3.0 + libmatroska v1.4.1
Video
ID : 1
Format : AVC
Format/Info : Advanced Video Codec
Format profile : High@L4.1
Format settings, CABAC : Yes
Format settings, ReFrames : 3 frames
Codec ID : V_MPEG4/ISO/AVC
Duration : 57 min 26 s
Bit rate mode : Variable
Bit rate : 4 000 kb/s
Maximum bit rate : 8 000 kb/s
Width : 1 280 pixels
Height : 720 pixels
Display aspect ratio : 16:9
Frame rate mode : Constant
Frame rate : 25.000 FPS
Standard : NTSC
Color space : YUV
Chroma subsampling : 4:2:0
Bit depth : 8 bits
Scan type : Progressive
Bits/(Pixel*Frame) : 0.174
Stream size : 1.60 GiB (91%)
Writing library : x264 core 114
Encoding settings : cabac=1 / ref=3 / deblock=1:0:0 / analyse=0x3:0x113 / me=hex / subme=7 / psy=1 / psy_rd=1.00:0.00 / mixed_ref=1 / me_range=16 / chroma_me=1 / trellis=1 / 8x8dct=1 / cqm=2 / deadzone=21,11 / fast_pskip=1 / chroma_qp_offset=-4 / threads=6 / sliced_threads=0 / slices=1 / nr=0 / decimate=1 / interlaced=0 / constrained_intra=0 / bframes=3 / b_pyramid=0 / b_adapt=1 / b_bias=0 / direct=1 / weightb=1 / open_gop=0 / weightp=2 / keyint=250 / keyint_min=25 / scenecut=40 / intra_refresh=0 / rc_lookahead=40 / rc=2pass / mbtree=1 / bitrate=4000 / ratetol=1.0 / qcomp=0.60 / qpmin=5 / qpmax=69 / qpstep=4 / cplxblur=20.0 / qblur=0.5 / vbv_maxrate=8000 / vbv_bufsize=7995 / nal_hrd=vbr / ip_ratio=1.40 / aq=1:1.00
Default : Yes
Forced : No
Color range : Limited
Color primaries : BT.709
Transfer characteristics : BT.709
Matrix coefficients : BT.709
Audio #1
ID : 2
Format : AC-3
Format/Info : Audio Coding 3
Mode extension : CM (complete main)
Format settings, Endianness : Big
Codec ID : A_AC3
Duration : 57 min 26 s
Bit rate mode : Constant
Bit rate : 192 kb/s
Channel(s) : 2 channels
Channel positions : Front: L R
Sampling rate : 48.0 kHz
Frame rate : 31.250 FPS (1536 spf)
Compression mode : Lossy
Stream size : 78.9 MiB (4%)
Language : Russian
Default : Yes
Forced : No
Audio #2
ID : 3
Format : AC-3
Format/Info : Audio Coding 3
Mode extension : CM (complete main)
Format settings, Endianness : Big
Codec ID : A_AC3
Duration : 57 min 26 s
Bit rate mode : Constant
Bit rate : 192 kb/s
Channel(s) : 2 channels
Channel positions : Front: L R
Sampling rate : 48.0 kHz
Frame rate : 31.250 FPS (1536 spf)
Compression mode : Lossy
Stream size : 78.9 MiB (4%)
Language : English
Default : No
Forced : Yes

Внимание:

Раздача ведётся путём добавления новых серий; при каждом добавлении создаётся новый торрент. Чтобы начать докачку новой серии, пользователям необходимо сделать следующее:
- Остановить скачивание.
- Удалить старый торрент у себя из клиента (старые серии удалять не надо).
- Скачать новый торрент и запустить его у себя в клиенте вместо старого, при этом указать клиенту путь в старую папку куда и должно происходить скачивание новых серий.
Добавлено
02. За горизонтом / Away
[Профиль] [ЛС]
Кто просматривает тему:

Показать сообщения:    

Текущее время: Сегодня 08:16

Часовой пояс: GMT



Вы не можете начинать темы
Вы не можете отвечать на сообщения
Вы не можете редактировать свои сообщения
Вы не можете удалять свои сообщения
Вы не можете голосовать в опросах
Вы не можете прикреплять файлы к сообщениям
Вы не можете скачивать файлы