BBC: Первый в мире компьютер. Разгадка Антикитерского механизма / The World's First Computer: Decoding Antikythera Mechanism (Майкл Бекхэм / Michael Beckham) [2012 г., Документальный, научно-познавательный, исследования HDTVRip 720p]

 
Автор Сообщение

skorpionN ®

Пол:

Стаж: 1 год 8 месяцев

Сообщений: 591



Награды: 4 (Подробнее)

Mega Seeder 3 (Количество: 1) Mega Seeder 2 (Количество: 1) Top Releaser 2 (Количество: 1)
Торрент-статистика

Создавать темы 02-Мар-2016 19:35

[Цитировать]

BBC: Первый в мире компьютер. Разгадка Антикитерского механизма / The World's First Computer: Decoding Antikythera Mechanism
Год выпуска: 2012
Страна: Великобритания, Греция, Япония, Франция, Anemon Productions, Arte, Hellenic Radio & Television (ERT), Images First, NHK, Nikon
Жанр: Документальный, научно-познавательный, исследования, археология
Продолжительность: 00:52:48
Перевод: Профессиональный (двухголосый), cтудия "SDI Media" по заказу ТПО "Ред Медиа"
Режиссер: Майкл Бекхэм / Michael Beckham
Описание: Первый компьютер мира. Разгадка Антикитерского механизма / The World's First Computer: Decoding Antikythera Mechanism (The Two Thousand Year Old Computer)
Если бы в 1901 году его не нашли, никто бы не поверил в возможность существования столь сложного механизма. Он был бы гениальным, будь он даже проще, чем он есть. Это рассказ об одной из самых выдающихся находок в истории. Этот корродированный бронзовый объект - прибор для предсказания будущего. Его создали 2 тысячи лет назад в Древней Греции. Древние греки создали удивительное устройство, что по сути было механическим компьютером. Реконструкция устройства показала, что это был астрологический калькулятор, вычисления на котором производились при помощи сложного механизма. На внешней стороне прибора были расположены два диска, отвечавших за календарь и знаки Зодиака. Манипулируя дисками, можно было узнать точную дату и изучить положение Зодиака относительно септенера: Луны, Солнца, Меркурия, Венеры, Марса, Юпитера и Сатурна. На обратной стороне механизма также располагались два диска, которые помогали вычислить лунные фазы и предсказать солнечные затмения. Все устройство в целом было также своеобразным калькулятором, который мог производить операции сложения, вычитания и деления. Вместе с тем ученые так и не смогли найти ответ на вопрос - был ли древний компьютер единичным изделием, выполненным на заказ, или же подобные калькуляторы были доступны для многих...
Доп. информация: Видеоряд адаптирован для русской аудиодорожки
Качество: HDTVRip 720p
Формат: MKV
Видео кодек: H.264
Аудио кодек: AC3
Видео: 1280x720 25.00fps 4000 Kbps
Аудио: AC3 2ch, 48kHz, 192 kbps

Скриншоты


MediaInfo:

Format : Matroska
Format version : Version 4 / Version 2
File size : 1.46 GiB
Duration : 52mn 48s
Overall bit rate mode : Constant
Overall bit rate : 3 956 Kbps
Encoded date : UTC 2016-03-02 19:26:12
Writing application : mkvmerge v8.9.0 ('Father Daughter') 64bit
Writing library : libebml v1.3.3 + libmatroska v1.4.4
DURATION : 00:52:48.360000000
NUMBER_OF_FRAMES : 79209
NUMBER_OF_BYTES : 1490010265
_STATISTICS_WRITING_APP : mkvmerge v8.9.0 ('Father Daughter') 64bit
_STATISTICS_WRITING_DATE_UTC : 2016-03-02 19:26:12
_STATISTICS_TAGS : BPS DURATION NUMBER_OF_FRAMES NUMBER_OF_BYTES
Video
ID : 1
Format : AVC
Format/Info : Advanced Video Codec
Format profile : High@L4.1
Format settings, CABAC : Yes
Format settings, ReFrames : 3 frames
Codec ID : V_MPEG4/ISO/AVC
Duration : 52mn 48s
Bit rate mode : Constant
Bit rate : 3 685 Kbps
Nominal bit rate : 4 000 Kbps / 4 000 Kbps
Width : 1 280 pixels
Height : 720 pixels
Display aspect ratio : 16:9
Frame rate mode : Constant
Frame rate : 25.000 fps
Standard : NTSC
Color space : YUV
Chroma subsampling : 4:2:0
Bit depth : 8 bits
Scan type : Progressive
Bits/(Pixel*Frame) : 0.160
Stream size : 1.36 GiB (93%)
Writing library : x264 core 114
Encoding settings : cabac=1 / ref=3 / deblock=1:0:0 / analyse=0x3:0x113 / me=hex / subme=7 / psy=1 / psy_rd=1.00:0.00 / mixed_ref=1 / me_range=16 / chroma_me=1 / trellis=1 / 8x8dct=1 / cqm=2 / deadzone=21,11 / fast_pskip=1 / chroma_qp_offset=-2 / threads=6 / sliced_threads=0 / slices=1 / nr=0 / decimate=1 / interlaced=0 / constrained_intra=0 / bframes=3 / b_pyramid=0 / b_adapt=1 / b_bias=0 / direct=1 / weightb=1 / open_gop=0 / weightp=2 / keyint=250 / keyint_min=25 / scenecut=40 / intra_refresh=0 / rc_lookahead=40 / rc=cbr / mbtree=1 / bitrate=4000 / ratetol=1.0 / qcomp=0.60 / qpmin=3 / qpmax=69 / qpstep=4 / vbv_maxrate=4000 / vbv_bufsize=3997 / nal_hrd=cbr / ip_ratio=1.40 / aq=1:1.00
Default : Yes
Forced : No
Color primaries : BT.709
Transfer characteristics : BT.709
Matrix coefficients : BT.709
Color range : Limited
Audio
ID : 2
Format : AC-3
Format/Info : Audio Coding 3
Mode extension : CM (complete main)
Format settings, Endianness : Big
Codec ID : A_AC3
Duration : 52mn 48s
Bit rate mode : Constant
Bit rate : 192 Kbps
Channel(s) : 2 channels
Channel positions : Front: L R
Sampling rate : 48.0 KHz
Bit depth : 16 bits
Compression mode : Lossy
Stream size : 72.5 MiB (5%)
Default : Yes
Forced : No
[/align
[Профиль] [ЛС]
Кто просматривает тему:

Показать сообщения:    

Текущее время: Сегодня 20:32

Часовой пояс: GMT



Вы не можете начинать темы
Вы не можете отвечать на сообщения
Вы не можете редактировать свои сообщения
Вы не можете удалять свои сообщения
Вы не можете голосовать в опросах
Вы не можете прикреплять файлы к сообщениям
Вы не можете скачивать файлы