BBC. Нетронутые уголки дикой природы / Nature\'s Microworlds [2012, Документальный, HDTVRip 720p]

 
Автор Сообщение

TorrentFilm ®

Пол:

Стаж: 2 года

Сообщений: 7741



Награды: Нет

Торрент-статистика

Создавать темы 09-Фев-2015 00:01

[Цитировать]

BBC. Нетронутые уголки дикой природы / Nature's Microworlds
Год выпуска: 2012
Страна: Великобритания
Студия: British Broadcasting Corporation
Жанр: Документальный
Продолжительность: 14 x ~ 00:30:00
Перевод: Профессиональный (дублированный)
Описание: 01. Галапагосы / Galapagos: Галапагосы стали местом обитания невероятного количества уникальных животных, многие виды которых можно найти только на этих островах. Но как они там оказались?
02. Серенгети / Serengeti: Национальный парк Серенгети состоит из огромных лугов и пастбищ, ставших домом большого количества травоядных животных в Африке. Но что же такого особенного в траве, произрастающей в этой местности?
03. Амазония / Amazon: Мы узнаем, какую роль играет грибок в росте деревьев Амазонки, и как помогает им расти, несмотря на крайне бедную почву.
04. Залив Монтерей / Monterey bay: Мы отправимся в увлекательное путешествие по экосистеме залива Монтерей в Калифорнии, где гигантские водоросли приютили самых разнообразных животных.
05. Окаванго / Okavango: Низовья реки Окаванго представляет собой величайшую в мире внутреннюю дельту, которая стала прибежищем для разнообразных растений и животных.
06. Шпицберген (Свальбард) / Svalbard: Полярный архипелаг Свальбард, казалось бы, обладает слишком холодным климатом для каких-либо видов жизни. Тем не менее, там можно найти белых медведей, северных оленей и тюленей.
07. Прибрежные леса Канады / Canada's Соastal fobest: Мы отправимся в леса Канады, которые раскинулись вдоль побережья страны, и которые стали домом для огромного количества хищных животных Северной Америки.
08. Большой Барьерный риф / Great barrier reef: Большой Барьерный риф в Австралии является самым большим рифом на планете. Но каким образом он стал таким большим?
09. Пустыня Намиб / Namib desert: Мы увидим, как различные источники воды и пищи позволяют микро системам пустыни Намиб выживать в суровом климате.
10. Йеллоустон / Yellowstone: В 1995 году в Национальный парк Йеллоустон после семидесятилетнего перерыва снова выпустили волков. Мы увидим, как это событие повлияло на пищевую цепь.
11. Глубоководное море / The Deep Sea: Глубоководное море, самый низкий уровень океана, является самой большой экосистемой на планете. Мы познакомимся с медузой, которая обладает 40 метровыми щупальцами, рыбой с фарами и мокрицей.
12. Красный центр Австралии / Australia's Red Centre: Несмотря на то, что Красный центр в Австралии известен своим суровым и неприветливым климатом, там можно встретить таких животных как большие рыжие кенгуру, эму и динго.
13. Шотландское нагорье / Scottish Highlands: Северо-Шотландское нагорье лежит в зоне сурового климата. Тем не менее, эта дикая и не до конца исследованая местность является домом для многих редких животных.
14. Насекомые (Членистоногие) / Insects Specials - Them and Us: Многие из нас не могут терпеть даже вида насекомых, но Стив Бэкшал расскажет, почему наша жизнь невозможна без таких насекомых как муравьи, гусеницы и саранча.
15. Насекомые (Членистоногие) / Insect Specials - Making Worlds: Начиная с муравьев Южной Америки и заканчивая жуками Восточной Африки, мы узнаем, как насекомые поддерживают жизнеспособность различных экосистем.
16. Насекомые (Членистоногие) / Insect Specials - The Secret to Their Success: На планете существует около 10 миллионов различных видов насекомых. В этой серии мы узнаем, как им удается выживать и размножаться, и делать наш мир таким разнообразным и красочным.
Сэмпл: http://sendfile.su/1083150
Тип релиза: HDTVRip 720p
Контейнер: MKV
Видео: MPEG-4 AVC, ~ 5200 Кбит/с, 1280x720
Аудио: AAC, 2 ch, 192 Кбит/с

MediaInfo

I:\BBC. Нетронутые уголки дикой природы\Natures Microworlds_720p\04_Monterey Bay.mkv General Unique ID : 192857548616123168776908002083750480499 (0x91170346149013D79E7D1C28B4630A73) Complete name : I:\BBC. Нетронутые уголки дикой природы\Natures Microworlds_720p\04_Monterey Bay.mkv Format : Matroska Format version : Version 4 / Version 2 File size : 1.01 GiB Duration : 28mn 59s Overall bit rate mode : Constant Overall bit rate : 5 002 Kbps Encoded date : UTC 2014-09-17 16:59:07 Writing application : mkvmerge v7.2.0 ('On Every Street') 64bit built on Sep 13 2014 15:52:10 Writing library : libebml v1.3.0 + libmatroska v1.4.1 DURATION : 00:28:59.960000000 NUMBER_OF_FRAMES : 43499 NUMBER_OF_BYTES : 1045638908 _STATISTICS_WRITING_APP : mkvmerge v7.2.0 ('On Every Street') 64bit built on Sep 13 2014 15:52:10 _STATISTICS_WRITING_DATE_UTC : 2014-09-17 16:59:07 _STATISTICS_TAGS : BPS DURATION NUMBER_OF_FRAMES NUMBER_OF_BYTES Video #1 ID : 1 Format : AVC Format/Info : Advanced Video Codec Format profile : High@L3.1 Format settings, CABAC : Yes Format settings, ReFrames : 3 frames Codec ID : V_MPEG4/ISO/AVC Duration : 28mn 59s Bit rate mode : Constant Bit rate : 4 710 Kbps Nominal bit rate : 5 000 Kbps / 5 000 Kbps Width : 1 280 pixels Height : 720 pixels Display aspect ratio : 16:9 Frame rate mode : Constant Frame rate : 25.000 fps Standard : NTSC Color space : YUV Chroma subsampling : 4:2:0 Bit depth : 8 bits Scan type : Progressive Bits/(Pixel*Frame) : 0.204 Stream size : 977 MiB (94%) Writing library : x264 core 114 Encoding settings : cabac=1 / ref=3 / deblock=1:0:0 / analyse=0x3:0x113 / me=hex / subme=7 / psy=1 / psy_rd=1.00:0.00 / mixed_ref=1 / me_range=16 / chroma_me=1 / trellis=1 / 8x8dct=1 / cqm=2 / deadzone=21,11 / fast_pskip=1 / chroma_qp_offset=-2 / threads=6 / sliced_threads=0 / slices=1 / nr=0 / decimate=1 / interlaced=0 / constrained_intra=0 / bframes=3 / b_pyramid=0 / b_adapt=1 / b_bias=0 / direct=1 / weightb=1 / open_gop=0 / weightp=2 / keyint=250 / keyint_min=25 / scenecut=40 / intra_refresh=0 / rc_lookahead=40 / rc=cbr / mbtree=1 / bitrate=5000 / ratetol=1.0 / qcomp=0.60 / qpmin=3 / qpmax=69 / qpstep=4 / vbv_maxrate=5000 / vbv_bufsize=4997 / nal_hrd=cbr / ip_ratio=1.40 / aq=1:1.00 Default : Yes Forced : No Color primaries : BT.709 Transfer characteristics : BT.709 Matrix coefficients : BT.709 Audio #2 ID : 2 Format : AC-3 Format/Info : Audio Coding 3 Mode extension : CM (complete main) Format settings, Endianness : Big Codec ID : A_AC3 Duration : 28mn 59s Bit rate mode : Constant Bit rate : 192 Kbps Channel count : 2 channels Channel positions : Front: L R Sampling rate : 48.0 KHz Bit depth : 16 bits Compression mode : Lossy Stream size : 39.8 MiB (4%) Default : Yes Forced : No

Скриншоты меню

Скриншоты

[Профиль] [ЛС]
Кто просматривает тему:

Показать сообщения:    

Текущее время: Сегодня 12:34

Часовой пояс: GMT



Вы не можете начинать темы
Вы не можете отвечать на сообщения
Вы не можете редактировать свои сообщения
Вы не можете удалять свои сообщения
Вы не можете голосовать в опросах
Вы не можете прикреплять файлы к сообщениям
Вы не можете скачивать файлы