BBC: Неизвестные викинги. Под парусами драккара / The Vikings Uncovered [серии 1-2 из 2] (Harvey Lilley) [2016 г., Документальный, история, археология, исследования, SATRip]

 
Автор Сообщение

skorpionN ®

Пол:

Стаж: 1 год 8 месяцев

Сообщений: 591



Награды: 4 (Подробнее)

Mega Seeder 1 (Количество: 1) Top Releaser 2 (Количество: 1) Mega Seeder 2 (Количество: 1)
Торрент-статистика

Создавать темы 06-Авг-2016 16:44

[Цитировать]

BBC: Неизвестные викинги. Под парусами драккара / The Vikings Uncovered [серии 1-2 из 2]
Год выпуска: 2016
Страна: Великобритания, BBC, History Production London
Жанр: Документальный, история, археология, исследования
Продолжительность: 2x~00:54:10
Перевод: Профессиональный (двухголосый), Видеофильм ТВ
Режиссер: Harvey Lilley
В ролях: Дэн Сноу / Dan Snow, доктор Сара Паркак / Dr Sarah Parcak
Описание: Викинги - скандинавские воины, которые грабили и мародёрствовали более 1000 лет назад. Их жестокость вошла в легенды. Они оставили следы насилия по всей Европе. Веками корабли викингов терроризировали людей от Ирландии до Каспийского моря. Но викинги были не только разбойниками. Они были торговцами и первооткрывателями, заплывавшими дальше чем любой европеец до них. Археологи планируют раскрыть их секреты. Как они овладели обработкой металла, как строили корабли, способные выдерживать океанские штормы? И главная загадка - как далеко они заплывали? Правда ли, что они открыли Северную Америку задолго до путешествий Колумба? Сегодня новые технологии помогают археологам пройти по их следам. Спутники, в 600 км. над Землёй, открывают ранее недоступное человеческому глазу. Но помогут ли технологии найти главную цель - поселения викингов в Северной Америке. Это заставило бы переписать учебники истории.
Доп. информация:
Драккар - так сегодня принято называть деревянный корабль викингов, длинный и узкий, с высоко поднятыми носом и кормой. Отсюда другое название подобного судна - "длинный корабль". Размеры драккаров колебались от 35 до 60 футов (от 10 до 18,5 метров).
Качество: SATRip
Формат: AVI
Видео кодек: XviD
Аудио кодек: AC3
Видео: 720x400 25.00 fps 1800 kbps
Аудио: AC3, 2ch, 192 kbps, 48 kHz

Скриншоты


MediaInfo:

Format : AVI
Format/Info : Audio Video Interleave
File size : 748 MiB
Duration : 54mn 9s
Overall bit rate : 1 931 Kbps
Writing application : TMPGEnc Video Mastering Works 6 Trial with Movie Plug-in Version. 6.1.5.26
Writing library : TMPGEnc Video Mastering Works 6 Trial with Movie Plug-in Version. 6.1.5.26
Video
ID : 0
Format : MPEG-4 Visual
Format profile : Advanced Simple@L5
Format settings, BVOP : 2
Format settings, QPel : No
Format settings, GMC : No warppoints
Format settings, Matrix : Default (H.263)
Muxing mode : Packed bitstream
Codec ID : XVID
Codec ID/Hint : XviD
Duration : 54mn 9s
Bit rate : 1 796 Kbps
Width : 720 pixels
Height : 400 pixels
Display aspect ratio : 16:9
Frame rate : 25.000 fps
Color space : YUV
Chroma subsampling : 4:2:0
Bit depth : 8 bits
Scan type : Progressive
Compression mode : Lossy
Bits/(Pixel*Frame) : 0.249
Stream size : 696 MiB (93%)
Writing library : XviD 73
Audio
ID : 1
Format : AC-3
Format/Info : Audio Coding 3
Mode extension : CM (complete main)
Format settings, Endianness : Big
Codec ID : 2000
Duration : 54mn 8s
Bit rate mode : Constant
Bit rate : 128 Kbps
Channel(s) : 2 channels
Channel positions : Front: L R
Sampling rate : 48.0 KHz
Frame rate : 31.250 fps (1536 spf)
Compression mode : Lossy
Stream size : 49.6 MiB (7%)
Alignment : Aligned on interleaves
Interleave, duration : 333 ms (8.34 video frames)

Внимание:

Раздача ведётся путём добавления новых серий; при каждом добавлении создаётся новый торрент. Чтобы начать докачку новой серии, пользователям необходимо сделать следующее:
- Остановить скачивание.
- Удалить старый торрент у себя из клиента (старые серии удалять не надо).
- Скачать новый торрент и запустить его у себя в клиенте вместо старого, при этом указать клиенту путь в старую папку куда и должно происходить скачивание новых серий.
Добавлено
2 серия


Последний раз редактировалось: skorpionN (2016-08-13 05:57), всего редактировалось 2 раз(а)
[Профиль] [ЛС]

KiruhaDelMar

Стаж: 1 год 8 месяцев

Сообщений: 247



Награды: Нет

Торрент-статистика

Создавать темы 06-Авг-2016 17:00 (спустя 16 минут)

[Цитировать]

щас и альф зальет, хадэшку hunter
[Профиль] [ЛС]

skorpionN ®

Пол:

Стаж: 1 год 8 месяцев

Сообщений: 591



Награды: 4 (Подробнее)

Mega Seeder 2 (Количество: 1) Mega Seeder 1 (Количество: 1) Mega Seeder 3 (Количество: 1)
Торрент-статистика

Создавать темы 06-Авг-2016 17:18 (спустя 17 минут)

[Цитировать]

99370щас и альф зальет, хадэшку hunter
Бог в помощь bk
[Профиль] [ЛС]

KiruhaDelMar

Стаж: 1 год 8 месяцев

Сообщений: 247



Награды: Нет

Торрент-статистика

Создавать темы 06-Авг-2016 17:45 (спустя 27 минут)

[Цитировать]

Шо значит в помощь, а тебе что, не помогает ? bx
[Профиль] [ЛС]

sergun

Стаж: 1 год 8 месяцев

Сообщений: 15



Награды: Нет

Торрент-статистика

Создавать темы 06-Авг-2016 21:10 (спустя 3 часа)

[Цитировать]

Все в Валгаллу ! ) Заценим.
[Профиль] [ЛС]

skorpionN ®

Пол:

Стаж: 1 год 8 месяцев

Сообщений: 591



Награды: 4 (Подробнее)

Mega Seeder 1 (Количество: 1) Top Releaser 2 (Количество: 1) Mega Seeder 3 (Количество: 1)
Торрент-статистика

Создавать темы 13-Авг-2016 05:58 (спустя 6 дней)

[Цитировать]

Сериал окончен
[Профиль] [ЛС]

ARI71

Стаж: 3 месяца 27 дней

Сообщений: 62



Награды: Нет

Торрент-статистика

Создавать темы 13-Авг-2016 21:02 (спустя 15 часов)

[Цитировать]

skorpionN - спасибо большое!
[Профиль] [ЛС]

b1408

Стаж: 5 месяцев 22 дня

Сообщений: 1



Награды: Нет

Торрент-статистика

Создавать темы 15-Авг-2016 16:09 (спустя 1 день 19 часов)

[Цитировать]

"Переписать учебники истории?" Поселение викингов в Северной Америке (на острове Ньюфаундленд) было найдено еще в 60-х годах прошлого века, и уже давно ни у кого не вызывает сомнений, что викинги - за 500 лет до Колумба - достигли этого континента. Сейчас ведутся археологические раскопки возможных поселений викингов на территории Лабрадора. Другое дело, что "открытие викингами Америки" не имело никаких исторических последствий, как это произошло в случае Колумба. Открытые викингами земли, так же как и Гренландию, где существовали колонии норманнов, долгое время считали продолжением Северной Европы, а не новым континентом. Впрочем, и сам Колумб, как известно, умер с убеждением, что достиг Азии...
[Профиль] [ЛС]

Таисия

Стаж: 1 год 8 месяцев

Сообщений: 37



Награды: 1 (Подробнее)

Girls (Количество: 1)
Торрент-статистика

Создавать темы 21-Сен-2016 16:44 (спустя 1 месяц 6 дней)

[Цитировать]

СКОРПИОН .....ОГРОМНОЕ СПАСИБО ТЕБЕ .....Столько фильмов качаю .....УРА !!!!!!!!!! ax ax ax ax ax ax ax ax ax
[Профиль] [ЛС]
Кто просматривает тему:

Показать сообщения:    

Текущее время: Сегодня 23:32

Часовой пояс: GMT



Вы не можете начинать темы
Вы не можете отвечать на сообщения
Вы не можете редактировать свои сообщения
Вы не можете удалять свои сообщения
Вы не можете голосовать в опросах
Вы не можете прикреплять файлы к сообщениям
Вы не можете скачивать файлы