BBC: Невидимые города Италии / Italy's Invisible Cities [серии 1-3 из 3] (Harvey Lilley) [2016 г., Документальный, научно-популярный, история, исследования, SATRip]

 
Автор Сообщение

skorpionN ®

Пол:

Стаж: 2 года 8 месяцев

Сообщений: 858



Награды: 4 (Подробнее)

Mega Seeder 1 (Количество: 1) Mega Seeder 2 (Количество: 1) Top Releaser 2 (Количество: 1)
Торрент-статистика

Создавать темы 14-Май-2017 12:01

[Цитировать]

BBC: Невидимые города Италии / Italy's Invisible Cities [серии 1-3 из 3]
Год выпуска: 2016
Страна: Великобритания, ВВС
Жанр: Документальный, научно-популярный, история, исследования
Продолжительность: 00:51:46+00:49:28+00:50:02
Перевод: Профессиональный (двухголосый), кинокомпания Видеофильм ТВ
Режиссер: Harvey Lilley
В ролях: Автор и ведущий- Др. Майкл Скотт / Dr. Michael Scott
Описание: Отправьтесь в долгое, приятное путешествие, постепенно узнавая Италию изнутри - ее великую историю, непревзойденное искусство, исключительную природу.
Список серий:
01. Неаполь / Naples
02. Венеция / Venice
03. Флоренция / Florence

Качество: SATRip
Формат: MPEG-TS
Видео кодек: H.264
Аудио кодек: MP3
Видео: 720x576 (785x576) 25.00 fps 1320 kbps
Аудио: MP2 2ch, 48kHz, 192 kbps

Скриншоты


MediaInfo:

Format : MPEG-TS
File size : 589 MiB
Duration : 51 min 45 s
Overall bit rate mode : Variable
Overall bit rate : 1 591 kb/s
Video
ID : 222 (0xDE)
Menu ID : 1822 (0x71E)
Format : AVC
Format/Info : Advanced Video Codec
Format profile : High@L3
Format settings, CABAC : Yes
Format settings, ReFrames : 4 frames
Codec ID : 27
Duration : 51 min 45 s
Bit rate : 1 319 kb/s
Width : 720 pixels
Height : 576 pixels
Display aspect ratio : 4:3
Frame rate : 25.000 FPS
Standard : Component
Color space : YUV
Chroma subsampling : 4:2:0
Bit depth : 8 bits
Scan type : Interlaced
Scan type, store method : Separated fields
Scan order : Top Field First
Bits/(Pixel*Frame) : 0.127
Stream size : 488 MiB (83%)
Color range : Limited
Color primaries : BT.601 PAL
Transfer characteristics : BT.470 System B, BT.470 System G
Matrix coefficients : BT.601
Audio
ID : 322 (0x142)
Menu ID : 1822 (0x71E)
Format : MPEG Audio
Format version : Version 1
Format profile : Layer 2
Codec ID : 3
Duration : 51 min 45 s
Bit rate mode : Constant
Bit rate : 192 kb/s
Channel(s) : 2 channels
Sampling rate : 48.0 kHz
Compression mode : Lossy
Stream size : 71.1 MiB (12%)
Language : Russian
[Профиль] [ЛС]
Кто просматривает тему:

Показать сообщения:    

Текущее время: Сегодня 09:19

Часовой пояс: GMT



Вы не можете начинать темы
Вы не можете отвечать на сообщения
Вы не можете редактировать свои сообщения
Вы не можете удалять свои сообщения
Вы не можете голосовать в опросах
Вы не можете прикреплять файлы к сообщениям
Вы не можете скачивать файлы