BBC: Морские гиганты / Ocean Giants / Episode 03 из (03) (Ингрид Квале / Ingrid Kvale, Аннушка Скофилд / Anuschka Schofield, Эллен Хусейн / Ellen Husain) [2011, Документальный, BDRip 720p]

 
Автор Сообщение

TorrentFilm ®

Пол:

Стаж: 3 года

Сообщений: 7763



Награды: Нет

Торрент-статистика

Создавать темы 04-Янв-2015 00:00

[Цитировать]

BBC: Морские гиганты / Ocean Giants
-Год выпуска: 2011
Страна: Великобритания
Жанр: Документальный
Продолжительность: ~3 х 00:51:00
Перевод: Двухголосый закадровый, студия «Омикрон»
Режиссер: Ингрид Квале / Ingrid Kvale, Аннушка Скофилд / Anuschka Schofield, Эллен Хусейн / Ellen Husain
В ролях: Стивен Фрай / Stephen Fry, Даг Аллен / Doug Allen, Эндрю Армор / Andrew Armour, Вера Да Силва / Vera Da Silva, Джим Дарлинг / Jim Darling, Аша Де Воз / Asha De Vos.
Русские субтитры: нет-Описание: В подводном мире киты и дельфины ведут необычный образ жизни. Их мир совершенно отличен от нашего, и мы можем лишь заглянуть туда. Синий кит - крупнейшее животное на планете. Более того, это крупнейшее животное из когда-либо живших на Земле. Миллионы лет эти гигантские киты и их сверхразумные братья - дельфины, царили в подводном мире.
Наши отношения с ними не всегда были дружественными. Ранее мы преследовали их. Но теперь мы протягиваем им руку и испытываем ощущение чуда. Вместе с исследователями, посвятившими им свою жизнь, мы встретим самых удивительных китов и дельфинов, раскроем их тайны, услышим их голоса. Загадочные голоса китов и дельфинов веками давали пищу воображению. Возможно, ученые когда-нибудь узнают правду о чудесных голосах океана. Но пока что частная жизнь гигантов океана покрыта тайной.-Часть 1: Жизнь гигантов / Giant Lives
Часть 2: Глубокие мысли / Deep Thinkers
Часть 3: Голоса океана / Voices of The Sea
-Релиз: -Тип релиза: BDRip 720p
Контейнер: MKV
Видео: 1280x720 (16:9) at 25.000 fps, MPEG-4 AVC, ~7828 kbps avg
Аудио: Russian: 48 kHz, AC3, 2/0 (L,R) ch, ~640.00 kbps avg
Аудио 2: English: 48 kHz, AC3, 2/0 (L,R) ch, ~640.00 kbps avg
Субтитры: нет
Сэмпл-

Скриншоты

MediaInfo

General
Unique ID : 215959289978368339520329379722469078132 (0xA2783F0FBB47A762ADBE1FAC9AFC7474)
Complete name : D:\Фильмы\Ocean.Giants.2011.720p.BluRay.Rus.Eng.HDCLUB\Ocean.Giants.S01E01.Giant.Lives.2011.720p.BluRay.Rus.Eng.HDCLUB.mkv
Format : Matroska
Format version : Version 2
File size : 3.34 GiB
Duration : 51mn 34s
Overall bit rate : 9 267 Kbps
Movie name : Ocean Giants (2011) - Release for HDCLUB
Encoded date : UTC 2014-09-14 12:58:10
Writing application : mkvmerge v3.4.0 ('Rapunzel') built on May 15 2010 09:38:20
Writing library : libebml v0.8.0 + libmatroska v0.9.0
Video
ID : 1
Format : AVC
Format/Info : Advanced Video Codec
Format profile : High@L4.1
Format settings, CABAC : Yes
Format settings, ReFrames : 7 frames
Codec ID : V_MPEG4/ISO/AVC
Duration : 51mn 34s
Bit rate : 7 803 Kbps
Width : 1 280 pixels
Height : 720 pixels
Display aspect ratio : 16:9
Frame rate mode : Constant
Frame rate : 25.000 fps
Color space : YUV
Chroma subsampling : 4:2:0
Bit depth : 8 bits
Scan type : Progressive
Bits/(Pixel*Frame) : 0.339
Stream size : 2.81 GiB (84%)
Title : Ocean Giants (2011) - Release for HDCLUB
Writing library : x264 core 115 r1995 c1e60b9
Encoding settings : cabac=1 / ref=7 / deblock=1:-3:-3 / analyse=0x3:0x113 / me=umh / subme=10 / psy=1 / psy_rd=1.00:0.00 / mixed_ref=1 / me_range=24 / chroma_me=1 / trellis=2 / 8x8dct=1 / cqm=0 / deadzone=21,11 / fast_pskip=0 / chroma_qp_offset=-2 / threads=6 / sliced_threads=0 / nr=0 / decimate=0 / interlaced=0 / bluray_compat=0 / constrained_intra=0 / bframes=8 / b_pyramid=2 / b_adapt=2 / b_bias=0 / direct=3 / weightb=1 / open_gop=0 / weightp=2 / keyint=250 / keyint_min=25 / scenecut=40 / intra_refresh=0 / rc_lookahead=50 / rc=crf / mbtree=1 / crf=18.0 / qcomp=0.75 / qpmin=0 / qpmax=69 / qpstep=4 / vbv_maxrate=50000 / vbv_bufsize=62500 / crf_max=0.0 / nal_hrd=none / ip_ratio=1.40 / aq=1:0.80
Language : English
Default : Yes
Forced : No
Audio #1
ID : 2
Format : AC-3
Format/Info : Audio Coding 3
Mode extension : CM (complete main)
Format settings, Endianness : Big
Codec ID : A_AC3
Duration : 51mn 34s
Bit rate mode : Constant
Bit rate : 640 Kbps
Channel(s) : 2 channels
Channel positions : Front: L R
Sampling rate : 48.0 KHz
Bit depth : 16 bits
Compression mode : Lossy
Stream size : 236 MiB (7%)
Title : AC3 2.0 @ 640 kbps - MVO, OMiCRON
Language : Russian
Default : Yes
Forced : No
Audio #2
ID : 3
Format : AC-3
Format/Info : Audio Coding 3
Mode extension : CM (complete main)
Format settings, Endianness : Big
Codec ID : A_AC3
Duration : 51mn 34s
Bit rate mode : Constant
Bit rate : 640 Kbps
Channel(s) : 2 channels
Channel positions : Front: L R
Sampling rate : 48.0 KHz
Bit depth : 16 bits
Compression mode : Lossy
Stream size : 236 MiB (7%)
Title : AC3 2.0 @ 640 kbps
Language : English
Default : No
Forced : No

Дополнительно

Задействовано 2 актера.
Русская дорожка получена наложением чистого голоса.
Перевод и озвучивание осуществлено в рамках сервиса "Озвучивание". Спонсоры: lokolex, Magal, Der__Gott, Lissa, Radov, Ex1l, Steal, moonsea, Zergus, rmn84, Plesha, longru.
Раздача от группы:
[Профиль] [ЛС]
Кто просматривает тему:

Показать сообщения:    

Текущее время: Сегодня 02:24

Часовой пояс: GMT



Вы не можете начинать темы
Вы не можете отвечать на сообщения
Вы не можете редактировать свои сообщения
Вы не можете удалять свои сообщения
Вы не можете голосовать в опросах
Вы не можете прикреплять файлы к сообщениям
Вы не можете скачивать файлы