BBC: Мир природы. Кукушка / The Natural World. Cuckoo (Тим Мартин / Tim Martin) [2009 г., Документальный, природа, HDTVRip 720p]

 
Автор Сообщение

skorpionN ®

Пол:

Стаж: 1 год 8 месяцев

Сообщений: 591



Награды: 4 (Подробнее)

Mega Seeder 3 (Количество: 1) Top Releaser 2 (Количество: 1) Mega Seeder 2 (Количество: 1)
Торрент-статистика

Создавать темы 27-Июн-2016 12:07

[Цитировать]

BBC: Мир природы. Кукушка / The Natural World. Cuckoo
Год выпуска: 2009
Страна: Великобритания, ВВС
Жанр: Документальный, природа
Продолжительность: 00:48:45
Перевод: Профессиональный (одноголосый), переведено и озвучено на студии "SDI Media", перевод Ирины Князевой, текст читает - Дмитрий Шандро
Текст (английский): читает сэр Дэвид Аттенборо
Субтитры: Eng, отключаемые
Режиссер: Тим Мартин / Tim Martin
Описание: Кукушки интриговали и вдохновляли людей на протяжении тысяч лет. Греческие философы, поэты и даже Шекспир писали об этих птицах и их сомнительной репутации. Насколько правдивы были эти истории?
Пение кукушки слышно с начала весны, но за волшебным звуком прячется птица, которая является обманщиком, вором и убийцей. Так как же кукушка обманывает других птиц в подкладывая яйца в чужие гнёзда? Почему обманутые приемные родители не реагируют, как они смотрят на то, что птенец кукушки уничтожает их собственные яйца и птенцов? И почему они неустанно трудятся чтобы накормить требовательного птенца, который, не имея ничего общего с ними, в скором времени затмит их?
Программа, которая создавалась на протяжении двух лет, раскрывает удивительные факты из жизни кукушек.
Качество: HDTVRip 720p
Формат: MKV
Видео кодек: H.264
Аудио кодек: AC3
Видео: 1280x720 25.00fps 3670 Kbps
Аудио 1: (Rus) AC3 2ch, 48kHz, 192 kbps
Аудио 2: (En) AC3 2ch, 48kHz, 192 kbps

Скриншоты


MediaImfo:

Format : Matroska
Format version : Version 4 / Version 2
File size : 1.25 GiB
Duration : 48mn 45s
Overall bit rate : 3 670 Kbps
Movie name : Natural World: Cuckoo
Encoded date : UTC 2016-06-27 11:35:50
Writing application : mkvmerge v6.9.1 ('Blue Panther') 64bit built on Apr 18 2014 18:23:38
Writing library : libebml v1.3.0 + libmatroska v1.4.1
Video
ID : 1
Format : AVC
Format/Info : Advanced Video Codec
Format profile : High@L4.1
Format settings, CABAC : Yes
Format settings, ReFrames : 6 frames
Codec ID : V_MPEG4/ISO/AVC
Duration : 48mn 45s
Bit rate : 3 213 Kbps
Width : 1 280 pixels
Height : 720 pixels
Display aspect ratio : 16:9
Frame rate mode : Constant
Frame rate : 25.000 fps
Color space : YUV
Chroma subsampling : 4:2:0
Bit depth : 8 bits
Scan type : Progressive
Bits/(Pixel*Frame) : 0.139
Stream size : 1.09 GiB (88%)
Writing library : x264 core 148 r2692 64f4e24
Encoding settings : cabac=1 / ref=6 / deblock=1:0:0 / analyse=0x3:0x113 / me=umh / subme=9 / psy=1 / psy_rd=1.00:0.00 / mixed_ref=1 / me_range=24 / chroma_me=1 / trellis=1 / 8x8dct=1 / cqm=0 / deadzone=21,11 / fast_pskip=0 / chroma_qp_offset=-2 / threads=3 / lookahead_threads=1 / sliced_threads=0 / nr=0 / decimate=1 / interlaced=0 / bluray_compat=0 / constrained_intra=0 / bframes=5 / b_pyramid=2 / b_adapt=2 / b_bias=0 / direct=1 / weightb=1 / open_gop=0 / weightp=2 / keyint=250 / keyint_min=25 / scenecut=40 / intra_refresh=0 / rc_lookahead=40 / rc=crf / mbtree=1 / crf=20.0 / qcomp=0.60 / qpmin=0 / qpmax=69 / qpstep=4 / ip_ratio=1.40 / aq=1:1.00
Language : English
Default : Yes
Forced : No
Audio #1
ID : 2
Format : AC-3
Format/Info : Audio Coding 3
Mode extension : CM (complete main)
Format settings, Endianness : Big
Codec ID : A_AC3
Duration : 48mn 45s
Bit rate mode : Constant
Bit rate : 192 Kbps
Channel(s) : 2 channels
Channel positions : Front: L R
Sampling rate : 48.0 KHz
Compression mode : Lossy
Stream size : 66.9 MiB (5%)
Language : Russian
Default : Yes
Forced : No
Audio #2
ID : 3
Format : AC-3
Format/Info : Audio Coding 3
Mode extension : CM (complete main)
Format settings, Endianness : Big
Codec ID : A_AC3
Duration : 48mn 45s
Bit rate mode : Constant
Bit rate : 192 Kbps
Channel(s) : 2 channels
Channel positions : Front: L R
Sampling rate : 48.0 KHz
Compression mode : Lossy
Stream size : 66.9 MiB (5%)
Language : English
Default : No
Forced : No
Text
ID : 4
Format : UTF-8
Codec ID : S_TEXT/UTF8
Codec ID/Info : UTF-8 Plain Text
Language : English
Default : No
Forced : No
[Профиль] [ЛС]
Кто просматривает тему:

Показать сообщения:    

Текущее время: Сегодня 13:50

Часовой пояс: GMT



Вы не можете начинать темы
Вы не можете отвечать на сообщения
Вы не можете редактировать свои сообщения
Вы не можете удалять свои сообщения
Вы не можете голосовать в опросах
Вы не можете прикреплять файлы к сообщениям
Вы не можете скачивать файлы