BBC: Мир природы - Горы тропических дождей / Natural World - The Mountains of the Monsoon (Сандеш Кадур) [2009 г., Документальный, природа, флора, фауна, HDTVRip-AVC 720p]

 
Автор Сообщение

skorpionN ®

Пол:

Стаж: 1 год 8 месяцев

Сообщений: 591



Награды: 4 (Подробнее)

Mega Seeder 2 (Количество: 1) Mega Seeder 1 (Количество: 1) Mega Seeder 3 (Количество: 1)
Торрент-статистика

Создавать темы 08-Июн-2016 16:53

[Цитировать]

BBC: Мир природы - Горы тропических дождей / Natural World - The Mountains of the Monsoon
Год выпуска: 2009
Страна: Великобритания, ВВС
Жанр: Документальный, природа, флора, фауна
Продолжительность: 00:48:19
Перевод: Профессиональный (одноголосый)
Режиссер: Сандеш Кадур
В ролях: Фотограф - Сандеш Кадур
Описание: «Остановись, мгновенье! Ты - прекрасно!» - примерно так говорят почти все вдохновенные фотохудожники, для которых фотографирование – не просто ремесло, а творческий процесс. Индийский фотограф Сандеш Кадур более десяти лет снимает самые красивые и загадочные уголки Индии. В документальном фильме «Горы тропических дождей» зрителям представлены фото отчёты Кадура о его путешествии на гряду индийских гор под названием Западные Гаты. Он давно хотел там побывать, и вот наконец-то выпала такая возможность. Больше всего фотографа поразили экзотические редкие животные, обитающие в тех местах, с которыми теперь познакомитесь и вы.
Доп. информация: переведено и озвучено на студии "SDI Media" перевод А. Соловьувой, текст читает Виктория Бабанова
Качество: HDTVRip-AVC 720p
Формат: MKV
Видео кодек: H.264
Аудио кодек: AC3
Видео: 1280x720 25fps 4000 Kbps
Аудио: AC-3, 2 ch, 48 KHz, 192 Kbps

MediaInfo:

Format : Matroska
Format version : Version 4 / Version 2
File size : 1.41 GiB
Duration : 48mn 18s
Overall bit rate mode : Variable
Overall bit rate : 4 181 Kbps
Encoded date : UTC 2016-06-08 16:46:02
Writing application : mkvmerge v6.9.1 ('Blue Panther') 64bit built on Apr 18 2014 18:23:38
Writing library : libebml v1.3.0 + libmatroska v1.4.1
Video
ID : 1
Format : AVC
Format/Info : Advanced Video Codec
Format profile : High@L4.1
Format settings, CABAC : Yes
Format settings, ReFrames : 3 frames
Codec ID : V_MPEG4/ISO/AVC
Duration : 48mn 18s
Bit rate mode : Variable
Bit rate : 4 000 Kbps
Maximum bit rate : 8 000 Kbps
Width : 1 280 pixels
Height : 720 pixels
Display aspect ratio : 16:9
Frame rate mode : Constant
Frame rate : 25.000 fps
Standard : NTSC
Color space : YUV
Chroma subsampling : 4:2:0
Bit depth : 8 bits
Scan type : Progressive
Bits/(Pixel*Frame) : 0.174
Stream size : 1.32 GiB (93%)
Writing library : x264 core 114
Encoding settings : cabac=1 / ref=3 / deblock=1:0:0 / analyse=0x3:0x113 / me=hex / subme=7 / psy=1 / psy_rd=1.00:0.00 / mixed_ref=1 / me_range=16 / chroma_me=1 / trellis=1 / 8x8dct=1 / cqm=2 / deadzone=21,11 / fast_pskip=1 / chroma_qp_offset=-4 / threads=6 / sliced_threads=0 / slices=1 / nr=0 / decimate=1 / interlaced=0 / constrained_intra=0 / bframes=3 / b_pyramid=0 / b_adapt=1 / b_bias=0 / direct=1 / weightb=1 / open_gop=0 / weightp=2 / keyint=250 / keyint_min=25 / scenecut=40 / intra_refresh=0 / rc_lookahead=40 / rc=2pass / mbtree=1 / bitrate=4000 / ratetol=1.0 / qcomp=0.60 / qpmin=5 / qpmax=69 / qpstep=4 / cplxblur=20.0 / qblur=0.5 / vbv_maxrate=8000 / vbv_bufsize=7995 / nal_hrd=vbr / ip_ratio=1.40 / aq=1:1.00
Default : Yes
Forced : No
Color range : Limited
Color primaries : BT.709
Transfer characteristics : BT.709
Matrix coefficients : BT.709
Audio
ID : 2
Format : AC-3
Format/Info : Audio Coding 3
Mode extension : CM (complete main)
Format settings, Endianness : Big
Codec ID : A_AC3
Duration : 48mn 18s
Bit rate mode : Constant
Bit rate : 192 Kbps
Channel(s) : 2 channels
Channel positions : Front: L R
Sampling rate : 48.0 KHz
Compression mode : Lossy
Stream size : 66.4 MiB (5%)
Default : Yes
Forced : No
[Профиль] [ЛС]
Кто просматривает тему:

Показать сообщения:    

Текущее время: Сегодня 22:21

Часовой пояс: GMT



Вы не можете начинать темы
Вы не можете отвечать на сообщения
Вы не можете редактировать свои сообщения
Вы не можете удалять свои сообщения
Вы не можете голосовать в опросах
Вы не можете прикреплять файлы к сообщениям
Вы не можете скачивать файлы