BBC: Мир природы. Водопад Виктория - Гремящий дым / Natural World. Victoria Falls - The Smoke that Thunders [сезон 29 серия 2] (Тим Мартин / Tim Martin) [2009 г., Документальный, природа, путешествия, видовой, HDTVRip-AVC 720p]

 
Автор Сообщение

skorpionN ®

Пол:

Стаж: 1 год 8 месяцев

Сообщений: 591



Награды: 4 (Подробнее)

Mega Seeder 2 (Количество: 1) Mega Seeder 1 (Количество: 1) Top Releaser 2 (Количество: 1)
Торрент-статистика

Создавать темы 07-Авг-2016 14:54

[Цитировать]

BBC: Мир природы. Водопад Виктория - Гремящий дым / Natural World. Victoria Falls - The Smoke that Thunders [сезон 29 серия 2]
Год выпуска: 2009
Страна: Великобритания, Halcyon Media for BBC and Thirteen/WNET New York
Жанр: Документальный, природа, путешествия, видовой
Продолжительность: 00:48:38
Перевод: Профессиональный (одноголосый), озвучено на студии "Кипарис" по заказу Союз-Видео
Режиссер: Тим Мартин / Tim Martin
Описание: Водопад Виктория - одно из самых впечатляющих мест нашей планеты. Воды реки Замбези обрушиваются в пропасть с высоты 108 метров, поднимая высоко в воздух море брызг. Это история обитателей тихой лагуны вверх по течению от водопада, скалистого ущелья внизу и мощного водного потока, который объединяет эти два мира.
Послушаем историю рассказанную с точки зрения местного рыбака, г-на Уайта, который ловил рыбу в этих водах в течение 69 лет и у которого на берегу реки компаньонами были бабуины, бегемоты, зимородки. Исследуйте судьбы этих животных его глазами, и узнайте, как зависит их жизнь от реки и дождей.
Качество: HDTVRip-AVC 720p
Формат: MKV
Видео кодек: H.264
Аудио кодек: AC3
Видео: 1280x720 25.00 fps 4500 kbps
Аудио: AC3, 2ch, 192 kbps, 48 kHz

Скриншоты


MediaInfo:

Format : Matroska
Format version : Version 4 / Version 2
File size : 1.59 GiB
Duration : 48mn 38s
Overall bit rate mode : Variable
Overall bit rate : 4 694 Kbps
Encoded date : UTC 2016-08-07 13:16:18
Writing application : TMPGEnc Video Mastering Works 6 Trial with Movie Plug-in Version. 6.1.5.26
Writing library : TMPGEnc Video Mastering Works 6 Trial with Movie Plug-in Version. 6.1.5.26
Video
ID : 2
Format : AVC
Format/Info : Advanced Video Codec
Format profile : High@L4.1
Format settings, CABAC : Yes
Format settings, ReFrames : 9 frames
Codec ID : V_MPEG4/ISO/AVC
Duration : 48mn 38s
Bit rate mode : Variable
Bit rate : 4 500 Kbps
Maximum bit rate : 18.4 Mbps
Width : 1 280 pixels
Height : 720 pixels
Display aspect ratio : 16:9
Frame rate mode : Constant
Frame rate : 25.000 fps
Standard : Component
Color space : YUV
Chroma subsampling : 4:2:0
Bit depth : 8 bits
Scan type : Progressive
Bits/(Pixel*Frame) : 0.195
Stream size : 1.50 GiB (94%)
Writing library : x264 core 144
Encoding settings : cabac=1 / ref=9 / deblock=1:0:0 / analyse=0x3:0x113 / me=hex / subme=7 / psy=1 / psy_rd=1.00:0.00 / mixed_ref=1 / me_range=16 / chroma_me=1 / trellis=1 / 8x8dct=1 / cqm=1 / deadzone=21,11 / fast_pskip=1 / chroma_qp_offset=-2 / threads=6 / lookahead_threads=1 / sliced_threads=0 / slices=1 / nr=0 / decimate=1 / interlaced=0 / minigop=0 / stitchable=1 / constrained_intra=0 / bframes=3 / b_pyramid=0 / b_adapt=1 / b_bias=0 / direct=1 / weightb=1 / open_gop=1 / weightp=2 / keyint=250 / keyint_min=25 / scenecut=40 / intra_refresh=0 / rc_lookahead=40 / rc=2pass / mbtree=1 / bitrate=4500 / ratetol=1.0 / qcomp=0.60 / qpmin=3 / qpmax=69 / qpstep=4 / cplxblur=20.0 / qblur=0.5 / vbv_maxrate=18400 / vbv_bufsize=18400 / nal_hrd=vbr / filler=0 / ip_ratio=1.40 / aq=1:1.00
Default : Yes
Forced : No
Color range : Limited
Color primaries : BT.709
Transfer characteristics : BT.709
Matrix coefficients : BT.709
Audio
ID : 1
Format : AC-3
Format/Info : Audio Coding 3
Mode extension : CM (complete main)
Format settings, Endianness : Big
Codec ID : A_AC3
Duration : 48mn 38s
Bit rate mode : Constant
Bit rate : 192 Kbps
Channel(s) : 2 channels
Channel positions : Front: L R
Sampling rate : 48.0 KHz
Frame rate : 31.250 fps (1536 spf)
Compression mode : Lossy
Stream size : 66.8 MiB (4%)
Default : Yes
Forced : No
[Профиль] [ЛС]

KiruhaDelMar

Стаж: 1 год 8 месяцев

Сообщений: 247



Награды: Нет

Торрент-статистика

Создавать темы 07-Авг-2016 18:04 (спустя 3 часа)

[Цитировать]

Про то как рыбу ловят на краю водопада? bv Так было ж
Не помню твое или нет, но точно смотрел fans пару месяцев назад
[Профиль] [ЛС]

skorpionN ®

Пол:

Стаж: 1 год 8 месяцев

Сообщений: 591



Награды: 4 (Подробнее)

Mega Seeder 3 (Количество: 1) Mega Seeder 1 (Количество: 1) Top Releaser 2 (Количество: 1)
Торрент-статистика

Создавать темы 07-Авг-2016 20:37 (спустя 2 часа 32 минуты)

[Цитировать]

Я не ставил. ДВД и рипчик были, а этого формата нет
[Профиль] [ЛС]
Кто просматривает тему:

Показать сообщения:    

Текущее время: Сегодня 23:30

Часовой пояс: GMT



Вы не можете начинать темы
Вы не можете отвечать на сообщения
Вы не можете редактировать свои сообщения
Вы не можете удалять свои сообщения
Вы не можете голосовать в опросах
Вы не можете прикреплять файлы к сообщениям
Вы не можете скачивать файлы