BBC: Мир природы. Андские медведи – призраки леса / The Natural World. Spectacled Bears [сезон 27 эпизод 13] (Fergus Beeley, Angel Garcia-Rojo) [2008 г., Документальный, научно-популярный, HDTVRip-AVC 720p]

 
Автор Сообщение

skorpionN ®

Пол:

Стаж: 2 года 6 месяцев

Сообщений: 803



Награды: 4 (Подробнее)

Top Releaser 2 (Количество: 1) Mega Seeder 3 (Количество: 1) Mega Seeder 1 (Количество: 1)
Торрент-статистика

Создавать темы 12-Май-2017 10:43

[Цитировать]

BBC: Мир природы. Андские медведи – призраки леса / The Natural World. Spectacled Bears [сезон 27 эпизод 13]
Год выпуска: 2008
Страна: Великобритания, ВВС
Жанр: Документальный, научно-популярный
Продолжительность: 00:48:48
Перевод: Профессиональный (одноголосый), переведено и озвучено на студии "SDI Media", перевод Сергея Дурова, текст читает Дмитрий Шандро
Режиссер: Fergus Beeley, Angel Garcia-Rojo
Описание: До недавнего времени обитающий высоко в лесах Анд южноамериканский очковый медведь считался существом пугливым, к тому же строгим вегетарианцем. Однако местные фермеры свидетельствуют об их нападениях на скот. Мнения кардинально расходятся, многие уверены, что помимо насекомых этот медведь ничего мясного в пищу не употребляет. Мы отправляемся в Анды, чтобы раз и навсегда разобраться с гастрономическими предпочтениями очковых медведей. В программу вошли интервью с фермерами, а также уникальные съемки медведей в местах их обитания.
Качество: HDTVRip-AVC
Формат: MKV
Видео кодек: H.264
Аудио кодек: AC3
Видео: 1280x720 25.00fps 4000 Kbps
Аудио 1: (Rus) AC3 2ch, 48kHz, 192 kbps
Аудио 2: (En) AC3 2ch, 48kHz, 192 kbps

Скриншоты


MediaInfo:

Format : Matroska
Format version : Version 4 / Version 2
File size : 1.49 GiB
Duration : 48 min 48 s
Overall bit rate mode : Variable
Overall bit rate : 4 378 kb/s
Encoded date : UTC 2017-05-12 09:25:49
Writing application : mkvmerge v6.9.1 ('Blue Panther') 64bit built on Apr 18 2014 18:23:38
Writing library : libebml v1.3.0 + libmatroska v1.4.1
Video
ID : 1
Format : AVC
Format/Info : Advanced Video Codec
Format profile : High@L4
Format settings, CABAC : Yes
Format settings, ReFrames : 3 frames
Codec ID : V_MPEG4/ISO/AVC
Duration : 48 min 48 s
Bit rate mode : Variable
Bit rate : 4 000 kb/s
Maximum bit rate : 8 000 kb/s
Width : 1 280 pixels
Height : 720 pixels
Display aspect ratio : 16:9
Frame rate mode : Constant
Frame rate : 25.000 FPS
Standard : NTSC
Color space : YUV
Chroma subsampling : 4:2:0
Bit depth : 8 bits
Scan type : Progressive
Bits/(Pixel*Frame) : 0.174
Stream size : 1.33 GiB (89%)
Writing library : x264 core 114
Encoding settings : cabac=1 / ref=3 / deblock=1:0:0 / analyse=0x3:0x113 / me=hex / subme=7 / psy=1 / psy_rd=1.00:0.00 / mixed_ref=1 / me_range=16 / chroma_me=1 / trellis=1 / 8x8dct=1 / cqm=2 / deadzone=21,11 / fast_pskip=1 / chroma_qp_offset=-4 / threads=6 / sliced_threads=0 / slices=1 / nr=0 / decimate=1 / interlaced=0 / constrained_intra=0 / bframes=3 / b_pyramid=0 / b_adapt=1 / b_bias=0 / direct=1 / weightb=1 / open_gop=0 / weightp=2 / keyint=250 / keyint_min=25 / scenecut=40 / intra_refresh=0 / rc_lookahead=40 / rc=2pass / mbtree=1 / bitrate=4000 / ratetol=1.0 / qcomp=0.60 / qpmin=5 / qpmax=69 / qpstep=4 / cplxblur=20.0 / qblur=0.5 / vbv_maxrate=8000 / vbv_bufsize=7995 / nal_hrd=vbr / ip_ratio=1.40 / aq=1:1.00
Default : Yes
Forced : No
Color range : Limited
Color primaries : BT.709
Transfer characteristics : BT.709
Matrix coefficients : BT.709
Audio #1
ID : 2
Format : AC-3
Format/Info : Audio Coding 3
Mode extension : CM (complete main)
Format settings, Endianness : Big
Codec ID : A_AC3
Duration : 48 min 48 s
Bit rate mode : Constant
Bit rate : 192 kb/s
Channel(s) : 2 channels
Channel positions : Front: L R
Sampling rate : 48.0 kHz
Frame rate : 31.250 FPS (1536 spf)
Compression mode : Lossy
Stream size : 67.0 MiB (4%)
Language : Russian
Default : Yes
Forced : No
Audio #2
ID : 3
Format : AC-3
Format/Info : Audio Coding 3
Mode extension : CM (complete main)
Format settings, Endianness : Big
Codec ID : A_AC3
Duration : 48 min 48 s
Bit rate mode : Constant
Bit rate : 192 kb/s
Channel(s) : 2 channels
Channel positions : Front: L R
Sampling rate : 48.0 kHz
Frame rate : 31.250 FPS (1536 spf)
Compression mode : Lossy
Stream size : 67.0 MiB (4%)
Language : English
Default : No
Forced : Yes


Последний раз редактировалось: skorpionN (2017-05-13 07:52), всего редактировалось 1 раз
[Профиль] [ЛС]

ARI71

Стаж: 1 год 1 месяц

Сообщений: 82



Награды: Нет

Торрент-статистика

Создавать темы 12-Май-2017 10:54 (спустя 11 минут)

[Цитировать]

Про очковых медведей - это класс! У этого фильма есть и другое название Очковые медведи. Тени в лесу / Natural World. Spectacled Bears. Shadows of the Forest
[Профиль] [ЛС]

ARI71

Стаж: 1 год 1 месяц

Сообщений: 82



Награды: Нет

Торрент-статистика

Создавать темы 12-Май-2017 10:57 (спустя 3 минуты)

[Цитировать]

Один юзер с соседнего трекера посмотрев этот фильм сказал следующее: "На то он и очковый, что на людей не нападает" ag
[Профиль] [ЛС]

skorpionN ®

Пол:

Стаж: 2 года 6 месяцев

Сообщений: 803



Награды: 4 (Подробнее)

Mega Seeder 2 (Количество: 1) Mega Seeder 1 (Количество: 1) Mega Seeder 3 (Количество: 1)
Торрент-статистика

Создавать темы 12-Май-2017 11:56 (спустя 58 минут)

[Цитировать]

109076Один юзер с соседнего трекера посмотрев этот фильм сказал следующее: "На то он и очковый, что на людей не нападает" ag
Видать они умнее людей bk
[Профиль] [ЛС]

ARI71

Стаж: 1 год 1 месяц

Сообщений: 82



Награды: Нет

Торрент-статистика

Создавать темы 12-Май-2017 13:17 (спустя 1 час 20 минут)

[Цитировать]

Скорее всего тот юзер имел ввиду тот факт, что при видя человека медведь очкует и бежит прочь от человека сломя голову, забираясь при этом на самое высокое дерево в лесу! Не зря же этот медведь занесён в Красную книгу Международного союза охраны природы! Вот если бы было наоборот, то тогда человека стали бы называть очковым!
[Профиль] [ЛС]
Кто просматривает тему:

Показать сообщения:    

Текущее время: Сегодня 03:21

Часовой пояс: GMT



Вы не можете начинать темы
Вы не можете отвечать на сообщения
Вы не можете редактировать свои сообщения
Вы не можете удалять свои сообщения
Вы не можете голосовать в опросах
Вы не можете прикреплять файлы к сообщениям
Вы не можете скачивать файлы