BBC: Магия грибов (Тайная жизнь грибов) / The Magic of Mushrooms (Russell Leven) [2014 г., Документальный, научно-познавательный, HDTVRip 720p]

 
Автор Сообщение

skorpionN ®

Пол:

Стаж: 1 год 8 месяцев

Сообщений: 592



Награды: 4 (Подробнее)

Mega Seeder 1 (Количество: 1) Mega Seeder 3 (Количество: 1) Top Releaser 2 (Количество: 1)
Торрент-статистика

Создавать темы 24-Май-2015 06:44

[Цитировать]

BBC: Магия грибов (Тайная жизнь грибов) / The Magic of Mushrooms
Год выпуска: 2014
Страна: Великобритания, BBC
Жанр: Документальный, научно-познавательный
Продолжительность: 00:49:20
Перевод: Профессиональный (одноголосый), компания Видеофильм ТВ
Режиссер: Russell Leven
Доп. информация: русская дорожка позаимствована из SatRip
В ролях: Ведущий - профессор Ричард Форти / Richard Fortey
Описание: Из всего живого на Земле есть нечто загадочное, а также и жизненно необходимое для нашего существования... Он стремительно размножается, большая часть его жизни проходит под землёй и только под конец своего жизненного цикла он показывается на поверхности. Это - гриб.
Многие люди считают грибы съедобными и они известны нам по народным сказкам но это далеко от истины. Они ведут тайную жизнь настолько магическую и таинственную, что это потрясает воображение. В этом фильме мы впервые увидим её такой, какая она есть. В специальной лаборатории с помощью эксперта мы узнаем тайну грибов, исследуем их удивительные способности, узнаем, что делает их самыми сильными, самыми большими и самыми устрашающими живыми организмами на планете. Мы познакомимся с людьми, которые получат выгоду, используя их могущество для создания новых лекарств и новых материалов. Для того, чтобы понять откуда у грибов такие большие способности мы понаблюдаем за их развитием: от рождения до самой смерти. Это настолько необычно, что кажется инопланетным. Мы выясним, почему от грибов напрямую зависит жизнь на планете и почему у нас с ними существует такая прочная связь.
Качество: HDTVRip 720p
Формат: MKV
Видео кодек: H.264
Аудио кодек: AC3
Видео: 1280x720 25.00fps 3500 Kbps
Аудио: AC3, 2ch, 192 kbps, 48 kHz

Скриншоты


MediaInfo:

Format : Matroska
Format version : Version 4 / Version 2
File size : 1.27 GiB
Duration : 49mn 19s
Overall bit rate mode : Variable
Overall bit rate : 3 690 Kbps
Encoded date : UTC 2015-05-23 22:36:41
Writing application : mkvmerge v7.9.0 ('Birds') 64bit
Writing library : libebml v1.3.1 + libmatroska v1.4.2
DURATION : 00:49:19.519000000
NUMBER_OF_FRAMES : 73988
NUMBER_OF_BYTES : 1293222753
_STATISTICS_WRITING_APP : mkvmerge v7.9.0 ('Birds') 64bit
_STATISTICS_WRITING_DATE_UTC : 2015-05-23 22:36:41
_STATISTICS_TAGS : BPS DURATION NUMBER_OF_FRAMES NUMBER_OF_BYTES
Video
ID : 2
Format : AVC
Format/Info : Advanced Video Codec
Format profile : High@L4.1
Format settings, CABAC : Yes
Format settings, ReFrames : 3 frames
Codec ID : V_MPEG4/ISO/AVC
Duration : 49mn 19s
Bit rate mode : Variable
Bit rate : 3 500 Kbps
Maximum bit rate : 8 000 Kbps
Width : 1 280 pixels
Height : 720 pixels
Display aspect ratio : 16:9
Frame rate mode : Constant
Frame rate : 25.000 fps
Standard : NTSC
Color space : YUV
Chroma subsampling : 4:2:0
Bit depth : 8 bits
Scan type : Progressive
Bits/(Pixel*Frame) : 0.152
Stream size : 1.18 GiB (93%)
Writing library : x264 core 114
Encoding settings : cabac=1 / ref=3 / deblock=1:0:0 / analyse=0x3:0x113 / me=hex / subme=7 / psy=1 / psy_rd=1.00:0.00 / mixed_ref=1 / me_range=16 / chroma_me=1 / trellis=1 / 8x8dct=1 / cqm=2 / deadzone=21,11 / fast_pskip=1 / chroma_qp_offset=-4 / threads=6 / sliced_threads=0 / slices=1 / nr=0 / decimate=1 / interlaced=0 / constrained_intra=0 / bframes=3 / b_pyramid=0 / b_adapt=1 / b_bias=0 / direct=1 / weightb=1 / open_gop=0 / weightp=2 / keyint=250 / keyint_min=25 / scenecut=40 / intra_refresh=0 / rc_lookahead=40 / rc=2pass / mbtree=1 / bitrate=3500 / ratetol=1.0 / qcomp=0.60 / qpmin=5 / qpmax=69 / qpstep=4 / cplxblur=20.0 / qblur=0.5 / vbv_maxrate=8000 / vbv_bufsize=7995 / nal_hrd=vbr / ip_ratio=1.40 / aq=1:1.00
Default : Yes
Forced : No
Color range : Limited
Color primaries : BT.709
Transfer characteristics : BT.709
Matrix coefficients : BT.709
Audio
ID : 1
Format : AC-3
Format/Info : Audio Coding 3
Mode extension : CM (complete main)
Format settings, Endianness : Big
Codec ID : A_AC3
Duration : 49mn 19s
Bit rate mode : Constant
Bit rate : 192 Kbps
Channel(s) : 2 channels
Channel positions : Front: L R
Sampling rate : 48.0 KHz
Compression mode : Lossy
Stream size : 67.7 MiB (5%)
Default : Yes
Forced : No


Последний раз редактировалось: skorpionN (2015-05-25 21:13), всего редактировалось 1 раз
[Профиль] [ЛС]

KiruhaDelMar

Стаж: 1 год 8 месяцев

Сообщений: 248



Награды: Нет

Торрент-статистика

Создавать темы 24-Май-2015 09:32 (спустя 2 часа 47 минут)

[Цитировать]

Вот блин, от тебя ничего не спрячешь bt я этот кин давно уже приватизировал, а ты Степану отдаешь, авторское право вообще не уважаешь
[Профиль] [ЛС]

skorpionN ®

Пол:

Стаж: 1 год 8 месяцев

Сообщений: 592



Награды: 4 (Подробнее)

Mega Seeder 3 (Количество: 1) Mega Seeder 2 (Количество: 1) Mega Seeder 1 (Количество: 1)
Торрент-статистика

Создавать темы 24-Май-2015 11:32 (спустя 2 часа)

[Цитировать]

Да у меня оно тоже лежало давненько. Думал что не покажут. У нас на МЕГА показывали и тоже срезали рекламщики. А Стёпка пока не заливал, значит время у тебя минимум суток 2-3, не больше. Он видать сейчас на передовой, а может и ранили парня bn Редко появляется.
[Профиль] [ЛС]

KiruhaDelMar

Стаж: 1 год 8 месяцев

Сообщений: 248



Награды: Нет

Торрент-статистика

Создавать темы 24-Май-2015 22:48 (спустя 11 часов)

[Цитировать]

Да че мне переживать, у меня украинский вариант пятихатка народу посмотрела , а этот и за штуку перевалит, так что все равно у руля останусь king
[Профиль] [ЛС]

KiruhaDelMar

Стаж: 1 год 8 месяцев

Сообщений: 248



Награды: Нет

Торрент-статистика

Создавать темы 24-Май-2015 22:51 (спустя 2 минуты)

[Цитировать]

Одно мне не нравится, опять настройки поменял , че ты их мусолишь, выставил одну и валяй все репы по щаблону, а у тебя каждый месяц месячные , вот как мне лейбу лепить? Опять кодировать ? bu
[Профиль] [ЛС]
Кто просматривает тему:

Показать сообщения:    

Текущее время: Сегодня 14:09

Часовой пояс: GMT



Вы не можете начинать темы
Вы не можете отвечать на сообщения
Вы не можете редактировать свои сообщения
Вы не можете удалять свои сообщения
Вы не можете голосовать в опросах
Вы не можете прикреплять файлы к сообщениям
Вы не можете скачивать файлы