BBC: Кровь и золото. Становление Испании с Саймоном Себагом-Монтефиоре / Blood and Gold: The Making of Spain with Simon Sebag Montefiore [серии 1-3 из 3] (Marion Milne) [2015 г., Документальный, история, исследования, HDTVRip-AVC 720p]

 
Автор Сообщение

skorpionN ®

Пол:

Стаж: 1 год 8 месяцев

Сообщений: 592



Награды: 4 (Подробнее)

Mega Seeder 2 (Количество: 1) Mega Seeder 1 (Количество: 1) Top Releaser 2 (Количество: 1)
Торрент-статистика

Создавать темы 29-Июл-2016 14:58

[Цитировать]

BBC: Кровь и золото. Становление Испании с Саймоном Себагом-Монтефиоре (Кров і золото. Становлення Іспанії із Саймоном Себагом-Монтефіоре) / Blood and Gold: The Making of Spain with Simon Sebag Montefiore [серии 1-3 из 3]
Год выпуска: 2015
Страна: Великобритания, ВВС Open University Partnership, Religion & Ethics Production Salford
Жанр: Документальный, история, исследования
Продолжительность: 3x~00:59:00
Перевод: Профессиональный (одноголосый), переведено и озвучено студией Омикрон по заказу HURTOM.COM
Режиссер: Marion Milne
В ролях: Автор и ведущий - Саймон Себаг- Монтефиоре
Описание:
Испания, Аль Андалус, Иберия, Гиспания - разные названия одной и той же страны. Испания, это одна из наиболее разнообразных стран западной Европы. Этот полуостров почти полностью окружен водой, а это и дар и проклятье. Путь в Испанию всегда лежал через южное море. Начиная с 3-го тысячелетия до н. э. торговцы Средиземноморья, греки и финикийцы, направлялись сюда влеченные плодородными равнинами, шахтами, богатыми на золото, серебро, олово и медь. Испания, это Европа со взором направленным на Африку. Её властители, армии, население и верования значительно отличались от всего того, что было на Западе. Местоположение Испании на границе Европы сделало её пограничной территорией и полем битвы культурного влияния целых континентов. Она стала Европой пребывая только в 14 км. от Африки. Здесь во всём можно увидеть уникальное сплетение еврейской, мусульманской и христианской культур. Всё это и делает Испанию особенной.
С автором и ведущим сериала Саймоном Себагом - Монтефиоре, который приехал сюда как историк и путешественник, мы узнаем какие люди и события вдохнули душу в Испанию, охватим её историю от Атлантического океана до Средиземного моря, побываем в наиболее известных городах, узнаем скрытые тайны и истории тех, кто создавал нацию. Отправимся же в путешествие от времён античности, диктатуры язычества, ислама и католицизма до сегодняшней демократии.
Список серий:
01. Завоевание / Conquest
02. Повторное завоевание / Reconquest
03. Нация / Nation

Качество: HDTVRip-AVC 720p
Формат: MKV
Видео кодек: H.264
Аудио кодек: AC3
Видео: 1280x720 25.00 fps 4000 kbps
Аудио 1: (Ukr) AC3 2ch, 48kHz, 192 kbps
Аудио 2: (En) AC3 2ch, 48kHz, 192 kbps
Субтитры: Eng - отключаемые

MediaInfo:

Format : Matroska
Format version : Version 4 / Version 2
File size : 1.81 GiB
Duration : 58mn 57s
Overall bit rate mode : Variable
Overall bit rate : 4 385 Kbps
Encoded date : UTC 2016-07-28 19:49:52
Writing application : mkvmerge v6.9.1 ('Blue Panther') 64bit built on Apr 18 2014 18:23:38
Writing library : libebml v1.3.0 + libmatroska v1.4.1
Video
ID : 1
Format : AVC
Format/Info : Advanced Video Codec
Format profile : High@L4.1
Format settings, CABAC : Yes
Format settings, ReFrames : 9 frames
Codec ID : V_MPEG4/ISO/AVC
Duration : 58mn 57s
Bit rate mode : Variable
Bit rate : 4 000 Kbps
Maximum bit rate : 18.4 Mbps
Width : 1 280 pixels
Height : 720 pixels
Display aspect ratio : 16:9
Frame rate mode : Constant
Frame rate : 25.000 fps
Standard : Component
Color space : YUV
Chroma subsampling : 4:2:0
Bit depth : 8 bits
Scan type : Progressive
Bits/(Pixel*Frame) : 0.174
Stream size : 1.61 GiB (89%)
Writing library : x264 core 144
Encoding settings : cabac=1 / ref=9 / deblock=1:0:0 / analyse=0x3:0x113 / me=hex / subme=7 / psy=1 / psy_rd=1.00:0.00 / mixed_ref=1 / me_range=16 / chroma_me=1 / trellis=1 / 8x8dct=1 / cqm=1 / deadzone=21,11 / fast_pskip=1 / chroma_qp_offset=-2 / threads=6 / lookahead_threads=1 / sliced_threads=0 / slices=1 / nr=0 / decimate=1 / interlaced=0 / minigop=0 / stitchable=1 / constrained_intra=0 / bframes=3 / b_pyramid=0 / b_adapt=1 / b_bias=0 / direct=1 / weightb=1 / open_gop=1 / weightp=2 / keyint=250 / keyint_min=25 / scenecut=40 / intra_refresh=0 / rc_lookahead=40 / rc=2pass / mbtree=1 / bitrate=4000 / ratetol=1.0 / qcomp=0.60 / qpmin=3 / qpmax=69 / qpstep=4 / cplxblur=20.0 / qblur=0.5 / vbv_maxrate=18400 / vbv_bufsize=18400 / nal_hrd=vbr / filler=0 / ip_ratio=1.40 / aq=1:1.00
Default : Yes
Forced : No
Color range : Limited
Color primaries : BT.709
Transfer characteristics : BT.709
Matrix coefficients : BT.709
Audio #1
ID : 2
Format : AC-3
Format/Info : Audio Coding 3
Mode extension : CM (complete main)
Format settings, Endianness : Big
Codec ID : A_AC3
Duration : 58mn 57s
Bit rate mode : Constant
Bit rate : 192 Kbps
Channel(s) : 2 channels
Channel positions : Front: L R
Sampling rate : 48.0 KHz
Frame rate : 31.250 fps (1536 spf)
Compression mode : Lossy
Stream size : 81.0 MiB (4%)
Language : Ukrainian
Default : Yes
Forced : No
Audio #2
ID : 3
Format : AC-3
Format/Info : Audio Coding 3
Mode extension : CM (complete main)
Format settings, Endianness : Big
Codec ID : A_AC3
Duration : 58mn 57s
Bit rate mode : Constant
Bit rate : 192 Kbps
Channel(s) : 2 channels
Channel positions : Front: L R
Sampling rate : 48.0 KHz
Frame rate : 31.250 fps (1536 spf)
Compression mode : Lossy
Stream size : 81.0 MiB (4%)
Language : English
Default : No
Forced : Yes
Text
ID : 4
Format : UTF-8
Codec ID : S_TEXT/UTF8
Codec ID/Info : UTF-8 Plain Text
Language : English
Default : No
Forced : No


Последний раз редактировалось: skorpionN (2016-07-30 09:38), всего редактировалось 2 раз(а)
[Профиль] [ЛС]

KiruhaDelMar

Стаж: 1 год 8 месяцев

Сообщений: 248



Награды: Нет

Торрент-статистика

Создавать темы 29-Июл-2016 22:29 (спустя 7 часов)

[Цитировать]

Мы же вроде в завязку ушли paratrooper чет ты быстро развязался
[Профиль] [ЛС]

KiruhaDelMar

Стаж: 1 год 8 месяцев

Сообщений: 248



Награды: Нет

Торрент-статистика

Создавать темы 30-Июл-2016 10:59 (спустя 12 часов)

[Цитировать]

А где Омикрон ? Там только украинская и английская дорога
[Профиль] [ЛС]

skorpionN ®

Пол:

Стаж: 1 год 8 месяцев

Сообщений: 592



Награды: 4 (Подробнее)

Mega Seeder 3 (Количество: 1) Mega Seeder 2 (Количество: 1) Top Releaser 2 (Количество: 1)
Торрент-статистика

Создавать темы 30-Июл-2016 14:07 (спустя 3 часа)

[Цитировать]

98961А где Омикрон ? Там только украинская и английская дорога
А я так и написал. Чего непонятного увидел?
[Профиль] [ЛС]

KiruhaDelMar

Стаж: 1 год 8 месяцев

Сообщений: 248



Награды: Нет

Торрент-статистика

Создавать темы 30-Июл-2016 14:20 (спустя 12 минут)

[Цитировать]

если укр то нужно в заголовке писать укр hmmm
[Профиль] [ЛС]

skorpionN ®

Пол:

Стаж: 1 год 8 месяцев

Сообщений: 592



Награды: 4 (Подробнее)

Mega Seeder 3 (Количество: 1) Mega Seeder 1 (Количество: 1) Top Releaser 2 (Количество: 1)
Торрент-статистика

Создавать темы 30-Июл-2016 15:01 (спустя 41 минута)

[Цитировать]

Не выдумывай, а читай что написано. Нет у нас правил на написание заголовков для тебя отдельно bk
[Профиль] [ЛС]

KiruhaDelMar

Стаж: 1 год 8 месяцев

Сообщений: 248



Награды: Нет

Торрент-статистика

Создавать темы 01-Авг-2016 14:41 (спустя 1 день 23 часа)

[Цитировать]

Правила устанавливаются для отладки процессов, в том числе для точношо понимания описания релиза. Омикрон у всех ассоциируется с русскоязычным переводом, ты про это отлично знаешь, а если знаешь то это уже саботаж с намеком на диверсию an Между прочим в группе из за твоей халатности три человека уже баню улетели, потому как у некоторых пиплов, укр.мова вызвает тремор речевого аппарата с использованием местных идиоматических выражений aq
[Профиль] [ЛС]

skorpionN ®

Пол:

Стаж: 1 год 8 месяцев

Сообщений: 592



Награды: 4 (Подробнее)

Top Releaser 2 (Количество: 1) Mega Seeder 3 (Количество: 1) Mega Seeder 1 (Количество: 1)
Торрент-статистика

Создавать темы 03-Авг-2016 15:36 (спустя 2 дня)

[Цитировать]

99056Правила устанавливаются для отладки процессов, в том числе для точношо понимания описания релиза. Омикрон у всех ассоциируется с русскоязычным переводом, ты про это отлично знаешь, а если знаешь то это уже саботаж с намеком на диверсию an Между прочим в группе из за твоей халатности три человека уже баню улетели, потому как у некоторых пиплов, укр.мова вызвает тремор речевого аппарата с использованием местных идиоматических выражений aq
Так это же здорово ay
[Профиль] [ЛС]

ARI71

Стаж: 3 месяца 28 дней

Сообщений: 62



Награды: Нет

Торрент-статистика

Создавать темы 21-Авг-2016 11:40 (спустя 17 дней)

[Цитировать]

Между прочим в группе из за твоей халатности три человека уже баню улетели, потому как у некоторых пиплов, укр.мова вызвает тремор речевого аппарата с использованием местных идиоматических выражений
Так это же здорово
Действительно здорово!
[Профиль] [ЛС]
Кто просматривает тему:

Показать сообщения:    

Текущее время: Сегодня 04:29

Часовой пояс: GMT



Вы не можете начинать темы
Вы не можете отвечать на сообщения
Вы не можете редактировать свои сообщения
Вы не можете удалять свои сообщения
Вы не можете голосовать в опросах
Вы не можете прикреплять файлы к сообщениям
Вы не можете скачивать файлы