BBC: Клеопатра. Портрет убийцы / Cleopatra. Portrait of a Killer (Пол Элстон) [2009 г., Документальный, исследования, археология, реконструкция HDTVRip-AVC 720p]

 
Автор Сообщение

skorpionN ®

Пол:

Стаж: 2 года 6 месяцев

Сообщений: 805



Награды: 4 (Подробнее)

Top Releaser 2 (Количество: 1) Mega Seeder 2 (Количество: 1) Mega Seeder 1 (Количество: 1)
Торрент-статистика

Создавать темы 11-Мар-2017 09:32

[Цитировать]

BBC: Клеопатра. Портрет убийцы / Cleopatra. Portrait of a Killer
Год выпуска: 2009
Страна: Великобритания, Япония, Brave New Media for BBC, NHK, Lion TV
Жанр: Документальный, исследования, археология, реконструкция
Продолжительность: ~00:58:17
Перевод: Профессиональный (двухголосый), озвучено на студии СВ Дубль по заказу ГТРК Культура, текст читает Антон Савенков
Режиссер: Пол Элстон / Paul Elston
Ведущий: Нил Оливер
Описание: Клеопатра, правительница Египта, одна из знаменитейших женщин мира. Легендарная красавица и умелый политик. Но у легенды есть темная сторона - забытая история хладнокровного убийства. Австрийские ученые идентифицировали останки Арсинои IV, убитой по приказу собственной сестры Клеопатры. Реконструкция лица Арсинои, женщины из рода Птолемеев, показывает: её мамой была африканка, что является настоящей сенсацией и вынуждает по-новому посмотреть на семью последних из рода Птолемеев. Была ли Клеопатра УБИЙЦЕЙ?!
Качество: HDTVRip-AVC 720p
Формат: MKV
Видео кодек: H.264
Аудио кодек: AC3
Видео: 1280x720 25.00 fps 4000 kbps
Аудио 1: (Rus) AC3 2ch, 48kHz, 192 kbps
Аудио 2: (En) AC3 2ch, 48kHz, 192 kbps
Субтитры: английские, отключаемые

Скриншоты

[

MediaInfo:

Format : Matroska
Format version : Version 4 / Version 2
File size : 1.78 GiB
Duration : 58 min 16 s
Overall bit rate : 4 379 kb/s
Encoded date : UTC 2017-03-10 20:06:53
Writing application : mkvmerge v7.3.0 ('Nouages') 64bit built on Oct 22 2014 18:53:34
Writing library : libebml v1.3.0 + libmatroska v1.4.1
Video
ID : 1
Format : AVC
Format/Info : Advanced Video Codec
Format profile : High@L4.1
Format settings, CABAC : Yes
Format settings, ReFrames : 4 frames
Codec ID : V_MPEG4/ISO/AVC
Duration : 58 min 16 s
Bit rate : 4 000 kb/s
Width : 1 280 pixels
Height : 720 pixels
Display aspect ratio : 16:9
Frame rate mode : Constant
Frame rate : 25.000 FPS
Color space : YUV
Chroma subsampling : 4:2:0
Bit depth : 8 bits
Scan type : Progressive
Bits/(Pixel*Frame) : 0.174
Stream size : 1.63 GiB (91%)
Writing library : x264 core 98 r1649 c54c47d
Encoding settings : cabac=1 / ref=4 / deblock=1:0:0 / analyse=0x3:0x113 / me=umh / subme=9 / psy=1 / psy_rd=1.00:0.00 / mixed_ref=1 / me_range=24 / chroma_me=1 / trellis=1 / 8x8dct=1 / cqm=0 / deadzone=21,11 / fast_pskip=0 / chroma_qp_offset=-2 / threads=3 / sliced_threads=0 / nr=0 / decimate=1 / interlaced=0 / constrained_intra=0 / bframes=3 / b_pyramid=0 / b_adapt=1 / b_bias=0 / direct=1 / weightb=1 / weightp=2 / keyint=125 / keyint_min=25 / scenecut=40 / intra_refresh=0 / rc_lookahead=40 / rc=2pass / mbtree=1 / bitrate=4000 / ratetol=1.0 / qcomp=0.60 / qpmin=10 / qpmax=51 / qpstep=4 / cplxblur=20.0 / qblur=0.5 / ip_ratio=1.40 / aq=1:1.00
Language : English
Default : Yes
Forced : No
Audio #1
ID : 2
Format : AC-3
Format/Info : Audio Coding 3
Mode extension : CM (complete main)
Format settings, Endianness : Big
Codec ID : A_AC3
Duration : 58 min 16 s
Bit rate mode : Constant
Bit rate : 192 kb/s
Channel(s) : 2 channels
Channel positions : Front: L R
Sampling rate : 48.0 kHz
Frame rate : 31.250 FPS (1536 spf)
Compression mode : Lossy
Stream size : 80.0 MiB (4%)
Language : Russian
Default : Yes
Forced : No
Audio #2
ID : 3
Format : AC-3
Format/Info : Audio Coding 3
Mode extension : CM (complete main)
Format settings, Endianness : Big
Codec ID : A_AC3
Duration : 58 min 15 s
Bit rate mode : Constant
Bit rate : 192 kb/s
Channel(s) : 2 channels
Channel positions : Front: L R
Sampling rate : 48.0 kHz
Frame rate : 31.250 FPS (1536 spf)
Compression mode : Lossy
Delay relative to video : 24 ms
Stream size : 80.0 MiB (4%)
Language : English
Default : No
Forced : Yes
Text
ID : 4
Format : UTF-8
Codec ID : S_TEXT/UTF8
Codec ID/Info : UTF-8 Plain Text
Duration : 58 min 2 s
Bit rate : 77 b/s
Count of elements : 689
Stream size : 32.8 KiB (0%)
Language : English
Default : No
Forced : No
[Профиль] [ЛС]
Кто просматривает тему:

Показать сообщения:    

Текущее время: Сегодня 00:51

Часовой пояс: GMT



Вы не можете начинать темы
Вы не можете отвечать на сообщения
Вы не можете редактировать свои сообщения
Вы не можете удалять свои сообщения
Вы не можете голосовать в опросах
Вы не можете прикреплять файлы к сообщениям
Вы не можете скачивать файлы