BBC: Карты: Власть, Грабеж и Владения / Maps: Power, Plunder and Possession [серии 1-3 из 3] (Рози Шелленберг, Хелен Никсон, Аннабэль Хоблей) [2010 г., Документальный, исследование, картография, HDTVRip 720p]

 
Автор Сообщение

skorpionN ®

Пол:

Стаж: 1 год 8 месяцев

Сообщений: 585



Награды: 4 (Подробнее)

Mega Seeder 3 (Количество: 1) Mega Seeder 2 (Количество: 1) Mega Seeder 1 (Количество: 1)
Торрент-статистика

Создавать темы 28-Мар-2015 18:14

[Цитировать]

BBC: Карты: Власть, Грабеж и Владения / Maps: Power, Plunder and Possession [серии 1-3 из 3]
Год выпуска: 2010
Страна: Великобритания, BBC
Жанр: Документальный, исследование, картография
Продолжительность: 3x~00:49:49
Перевод: Профессиональный (одноголосый)
Режиссер: Рози Шелленберг, Хелен Никсон, Аннабэль Хоблей
В ролях: ведущий - профессор Джерри Броттон
Описание: В 3 серийном документальном сериале о необыкновенных историях карт, профессор Джерри Броттон раскрывает сущность карт не просто как источников картографической информации, но и как инструментов политической власти и пропаганды.
Список серий:
01. Окна мира / Windows on the World
Профессор Джерри Броттон рассказывает, как непросто на самом деле на карте попасть из точки А в точку Б, но как легко по ним, картам, проследить определенные моменты истории. Броттон исследует, как каждая культура развивала свой собственный уникальный, часто неожиданный, способ отображения пространства на бумаге. Также он покажет великолепные карты британской береговой линии Генриха VIII, которые помогали контролировать другие земли.
02. Дух времени / Spirit of the Age
Британский ученый Джерри Броттон с помощью географическич карт поведает нам о страхах и предрассудках разных времен: религиозных страстях, вдохновленных средневековыми картами мира, указывающими путь в рай, паломнических маршрутах в Иерусалим и детях-чудовищах, пожирающих своих родителей. Он также расскажет о "Войне карт" 70-х годов уже нашего времени, когда журналист Арно Петерс заявил, что принятая на тот момент карта мира лживо сужала настоящие границы развивающихся стран. А еще Броттон покажет, как отображаются в цифровых картах современные социальные проблемы, такие, как детская смертность.
03. Отображение мира на картах (Территориальные споры) / Mapping the World
Профессор Джерри Броттон расскажет, как увидеть в картах фотографии исторических событий и образы дальних стран, которые всегда манили к себе путешественников. Первооткрыватели, такие, как Христофор Колумб, уходили в неизвестном направлении в поисках богатств и, бывало, открывали целый новый континент. Как навигация повлияла на стремление людей завоевывать новые территории и ради чего стремятся создать точную карту Северного Полюса.
Доп. информация: русская дорожка позаимствована из SatRip
Качество: HDTVRip 720p
Формат: MKV
Видео кодек: H.264
Аудио кодек: AC3
Видео: 1280x720 25fps 3968 Kbps
Аудио: AC3, 2ch, 192 kbps, 48 kHz

MediaInfo:

Format : Matroska
Format version : Version 4 / Version 2
File size : 1.48 GiB
Duration : 49mn 48s
Overall bit rate mode : Constant
Overall bit rate : 4 245 Kbps
Encoded date : UTC 2015-03-28 17:59:24
Writing application : mkvmerge v7.8.0 ('River Man') 64bit built on Mar 27 2015 16:31:37
Writing library : libebml v1.3.1 + libmatroska v1.4.2
DURATION : 00:49:48.880000000
NUMBER_OF_FRAMES : 74722
NUMBER_OF_BYTES : 1513418007
_STATISTICS_WRITING_APP : mkvmerge v7.8.0 ('River Man') 64bit built on Mar 27 2015 16:31:37
_STATISTICS_WRITING_DATE_UTC : 2015-03-28 17:59:24
_STATISTICS_TAGS : BPS DURATION NUMBER_OF_FRAMES NUMBER_OF_BYTES
Video
ID : 1
Format : AVC
Format/Info : Advanced Video Codec
Format profile : High@L3.1
Format settings, CABAC : Yes
Format settings, ReFrames : 3 frames
Codec ID : V_MPEG4/ISO/AVC
Duration : 49mn 48s
Bit rate mode : Constant
Bit rate : 3 968 Kbps
Nominal bit rate : 4 300 Kbps / 4 300 Kbps
Width : 1 280 pixels
Height : 720 pixels
Display aspect ratio : 16:9
Frame rate mode : Constant
Frame rate : 25.000 fps
Standard : NTSC
Color space : YUV
Chroma subsampling : 4:2:0
Bit depth : 8 bits
Scan type : Progressive
Bits/(Pixel*Frame) : 0.172
Stream size : 1.38 GiB (93%)
Writing library : x264 core 114
Encoding settings : cabac=1 / ref=3 / deblock=1:0:0 / analyse=0x3:0x113 / me=hex / subme=7 / psy=1 / psy_rd=1.00:0.00 / mixed_ref=1 / me_range=16 / chroma_me=1 / trellis=1 / 8x8dct=1 / cqm=2 / deadzone=21,11 / fast_pskip=1 / chroma_qp_offset=-2 / threads=6 / sliced_threads=0 / slices=1 / nr=0 / decimate=1 / interlaced=0 / constrained_intra=0 / bframes=3 / b_pyramid=0 / b_adapt=1 / b_bias=0 / direct=1 / weightb=1 / open_gop=0 / weightp=2 / keyint=250 / keyint_min=25 / scenecut=40 / intra_refresh=0 / rc_lookahead=40 / rc=cbr / mbtree=1 / bitrate=4300 / ratetol=1.0 / qcomp=0.60 / qpmin=3 / qpmax=69 / qpstep=4 / vbv_maxrate=4300 / vbv_bufsize=4292 / nal_hrd=cbr / ip_ratio=1.40 / aq=1:1.00
Default : Yes
Forced : No
Color primaries : BT.709
Transfer characteristics : BT.709
Matrix coefficients : BT.709
Color range : Limited
Audio
ID : 2
Format : AC-3
Format/Info : Audio Coding 3
Mode extension : CM (complete main)
Format settings, Endianness : Big
Codec ID : A_AC3
Duration : 49mn 48s
Bit rate mode : Constant
Bit rate : 192 Kbps
Channel(s) : 2 channels
Channel positions : Front: L R
Sampling rate : 48.0 KHz
Bit depth : 16 bits
Compression mode : Lossy
Stream size : 68.4 MiB (5%)
Default : Yes
Forced : No

Внимание:

Раздача ведётся путём добавления новых серий; при каждом добавлении создаётся новый торрент. Чтобы начать докачку новой серии, пользователям необходимо сделать следующее:
- Остановить скачивание.
- Удалить старый торрент у себя из клиента (старые серии удалять не надо).
- Скачать новый торрент и запустить его у себя в клиенте вместо старого, при этом указать клиенту путь в старую папку куда и должно происходить скачивание новых серий.
Добавлена серия 01. Окна мира / Windows on the World


Последний раз редактировалось: skorpionN (2015-04-06 06:28), всего редактировалось 3 раз(а)
[Профиль] [ЛС]

skorpionN ®

Пол:

Стаж: 1 год 8 месяцев

Сообщений: 585



Награды: 4 (Подробнее)

Mega Seeder 1 (Количество: 1) Mega Seeder 2 (Количество: 1) Top Releaser 2 (Количество: 1)
Торрент-статистика

Создавать темы 02-Апр-2015 20:03 (спустя 5 дней)

[Цитировать]

Сериал окончен
[Профиль] [ЛС]
Кто просматривает тему:

Показать сообщения:    

Текущее время: Сегодня 14:35

Часовой пояс: GMT



Вы не можете начинать темы
Вы не можете отвечать на сообщения
Вы не можете редактировать свои сообщения
Вы не можете удалять свои сообщения
Вы не можете голосовать в опросах
Вы не можете прикреплять файлы к сообщениям
Вы не можете скачивать файлы