BBC: Как построить средневековый замок / Secrets of the Castle with Ruth, Peter and Tom [серии 1-5 из 5] (Стюарт Эллиотт) [2014 г., Документальный, постановочный, научно-познавательный, история, HDTVRip 720p]

 
Автор Сообщение

skorpionN ®

Пол:

Стаж: 1 год 8 месяцев

Сообщений: 591



Награды: 4 (Подробнее)

Mega Seeder 3 (Количество: 1) Top Releaser 2 (Количество: 1) Mega Seeder 2 (Количество: 1)
Торрент-статистика

Создавать темы 19-Мар-2015 07:02

[Цитировать]

BBC: Как построить средневековый замок / Secrets of the Castle with Ruth, Peter and Tom [серии 1-5 из 5]
Год выпуска: 2014
Страна: Великобритания, Lion Television Scotland for BBC
Жанр: Документальный, постановочный, научно-познавательный, история
Продолжительность: 5х ~ 00:58:58
Перевод: Профессиональный (одноголосый) - "SDI Media" перевод Г. Максимова, текст читал Роман Антанович
Режиссер: Стюарт Эллиотт
Описание: Создатели документальных сериалов «Викторианская ферма» и «Эдвардианская ферма» историк Рут Гудман и археологи Питер Джинн и Том Пинфолд на этот раз отправляются во Францию, где они примут участие в одном из самых амбициозных проектов – постройке настоящего средневекового замка. Строительство замка было начато в окрестностях города Треньи в Бургундии в 1997 году, и осуществляется в соответствии с технологиями XIII века. Рут, Питер и Том решают присоединиться к местным строителям и научиться методам, которые применялись при постройке замка в средневековые времена.
Список серий:
01. Почему строили замок / Why Build A Castle
Археологи Питер и Том сразу же начинают обучаться навыкам средневековых каменщиков, и пробуют построить винтовую лестницу. А Рут в это время учится плести циновку.
02. Защита замка / Defending The Castle
В этой серии Рут, Том и Питер учатся защищать замок. Они приобретают навыки боевого искусства, а также узнают, как строились оборонительные сооружения замка.
03. Внутри замка / Inside The Castle
Рут, Питер и Том узнают о том, каким образом оформлялся интерьер замка. Они учатся штукатурить и наносить побелку на внутренние стены сторожевой башни.
04. Сообщество замковых умельцев / The Castle’s Community of Skills
В этой серии Рут, Питер и Том узнают, каким образом координировалась работа каменщиков, кузнецов и плотников во время строительства замка.
05. За стенами замка / Beyond The Castle Walls
Время пребывания во Франции подходит к концу, и Рут, Питер и Том рассказывают о том, какое значение имели замки в средневековье.
Качество: HDTVRip 720p
Формат: MKV
Видео кодек: H.264
Аудио кодек: AC3
Видео: 1280x720 25fps 2950 Kbps
Аудио: AC3, 2ch, 192 kbps, 48 kHz

Скриншоты


MediaInfo:

Format : Matroska
Format version : Version 4 / Version 2
File size : 1.32 GiB
Duration : 58mn 58s
Overall bit rate : 3 208 Kbps
Encoded date : UTC 2015-03-04 20:17:53
Writing application : mkvmerge v7.6.0 ('Garden of Dreams') 64bit built on Feb 8 2015 13:04:34
Writing library : libebml v1.3.1 + libmatroska v1.4.2
DURATION : 00:58:58.400000000
NUMBER_OF_FRAMES : 110575
NUMBER_OF_BYTES : 84921600
_STATISTICS_WRITING_APP : mkvmerge v7.6.0 ('Garden of Dreams') 64bit built on Feb 8 2015 13:04:34
_STATISTICS_WRITING_DATE_UTC : 2015-03-04 20:17:53
_STATISTICS_TAGS : BPS DURATION NUMBER_OF_FRAMES NUMBER_OF_BYTES
Video
ID : 1
Format : AVC
Format/Info : Advanced Video Codec
Format profile : High@L4.1
Format settings, CABAC : No
Format settings, ReFrames : 1 frame
Format settings, GOP : M=1, N=12
Codec ID : V_MPEG4/ISO/AVC
Duration : 58mn 58s
Bit rate : 2 952 Kbps
Width : 1 280 pixels
Height : 720 pixels
Display aspect ratio : 16:9
Frame rate mode : Constant
Frame rate : 25.000 fps
Color space : YUV
Chroma subsampling : 4:2:0
Bit depth : 8 bits
Scan type : Progressive
Bits/(Pixel*Frame) : 0.128
Stream size : 1.22 GiB (92%)
Default : Yes
Forced : No
Audio
ID : 2
Format : AC-3
Format/Info : Audio Coding 3
Mode extension : CM (complete main)
Format settings, Endianness : Big
Codec ID : A_AC3
Duration : 58mn 58s
Bit rate mode : Constant
Bit rate : 192 Kbps
Channel(s) : 2 channels
Channel positions : Front: L R
Sampling rate : 48.0 KHz
Bit depth : 16 bits
Compression mode : Lossy
Stream size : 81.0 MiB (6%)
Default : Yes
Forced : No

Внимание:

Раздача ведётся путём добавления новых серий; при каждом добавлении создаётся новый торрент. Чтобы начать докачку новой серии, пользователям необходимо сделать следующее:
- Остановить скачивание.
- Удалить старый торрент у себя из клиента (старые серии удалять не надо).
- Скачать новый торрент и запустить его у себя в клиенте вместо старого, при этом указать клиенту путь в старую папку куда и должно происходить скачивание новых серий.
Добавлена серия 05. За стенами замка / Beyond The Castle Walls


Последний раз редактировалось: skorpionN (2015-04-01 19:39), всего редактировалось 8 раз(а)
[Профиль] [ЛС]

Таисия

Стаж: 1 год 8 месяцев

Сообщений: 37



Награды: 1 (Подробнее)

Girls (Количество: 1)
Торрент-статистика

Создавать темы 21-Мар-2015 11:01 (спустя 2 дня 3 часа)

[Цитировать]

ЖДЕМ остальные серии ....
[Профиль] [ЛС]

juozas43

Пол:

Стаж: 1 год 8 месяцев

Сообщений: 3



Награды: Нет

Торрент-статистика

Создавать темы 02-Апр-2015 06:07 (спустя 11 дней)

[Цитировать]

64785ЖДЕМ остальные серии ....
серии 1-5 из 5
[Профиль] [ЛС]
Кто просматривает тему:

Показать сообщения:    

Текущее время: Сегодня 06:17

Часовой пояс: GMT



Вы не можете начинать темы
Вы не можете отвечать на сообщения
Вы не можете редактировать свои сообщения
Вы не можете удалять свои сообщения
Вы не можете голосовать в опросах
Вы не можете прикреплять файлы к сообщениям
Вы не можете скачивать файлы