BBC. Как мы до этого додумались со Стивеном Джонсоном (1-6 серии из 6) / How We Got to Now (Ник Стэйси / Nic Stacey) [2014, Документальный, познавательный, SATRip]

 
Автор Сообщение

sergej644 ®

Пол:

Стаж: 4 года 11 месяцев

Сообщений: 6045

Откуда: Soviet Union



Награды: Нет

Торрент-статистика

Создавать темы 05-Янв-2016 09:23

[Цитировать]

BBC. Как мы до этого додумались со Стивеном Джонсоном (1-6 серии из 6) / How We Got to Now
Дата/Год выпуска: 2014
Страна: США, BBC Worldwide Americas, Nutopia
Жанр: Документальный, познавательный
Продолжительность: 00:54:45
Перевод: Профессиональный (дублированный)
Русские субтитры: нет
Оригинальная аудиодорожка: нет
Режиссер: Ник Стэйси / Nic Stacey
Описание: Как наша борьба с грязью создала тротуар, бассейн, плоский экран и айфон? Смотрите в новом фильме из серии "Как мы до этого додумались со Стивеном Джонсоном" на канале Наука 2.0! Для того, чтобы из самых рядовых вещей создать нечто неординарное и уникальное нужно иметь не абы какое воображение и фантазию. Именно подобными качествами в избытке и наделены ведущие оригинального документального цикла "Как мы до этого додумались со Стивеном Джонсоном".
качество: SATRip
формат: AVI
Видео: Xvid 720x400 25fps 1 750 Kbps
Аудио: AC3 48000Hz stereo 192kbps

Список выпусков/серий

01. Чистота / Clean
02. Время / Time
03. Стекло / Glass
04. Свет / Light
05. Холод / Cold
06. Звук / Sound

MediaInfo

N:\Фильмы XviD  NEW\Как мы до этого додумались со Стивеном Джонсоном.2014. XviD.SATRip\01. Чистота.avi
   General
      Complete name : N:\Фильмы XviD  NEW\Как мы до этого додумались со Стивеном Джонсоном.2014. XviD.SATRip\01. Чистота.avi
      Format : AVI
      Format/Info : Audio Video Interleave
      File size : 764 MiB
      Duration : 54mn 45s
      Overall bit rate : 1 952 Kbps
      Movie name : How We Got to Now. Clean (01)
      Director : SATRip by Thunder
      Writing application : VirtualDubMod 1.5.10.3 | www.virtualdub-fr.org || (build 2550/release)
      Original source form/Name : Documentary
   Video #0
      ID : 0
      Format : MPEG-4 Visual
      Format profile : Advanced Simple@L5
      Format settings, BVOP : Yes
      Format settings, QPel : No
      Format settings, GMC : No warppoints
      Format settings, Matrix : Default (H.263)
      Codec ID : XVID
      Codec ID/Hint : XviD
      Duration : 54mn 45s
      Bit rate : 1 750 Kbps
      Width : 720 pixels
      Height : 400 pixels
      Display aspect ratio : 16:9
      Frame rate : 25.000 fps
      Color space : YUV
      Chroma subsampling : 4:2:0
      Bit depth : 8 bits
      Scan type : Progressive
      Bits/(Pixel*Frame) : 0.243
      Stream size : 685 MiB (90%)
      Writing library : XviD 1.2.1 (UTC 2008-12-04)
   Audio #1
      ID : 1
      Format : AC-3
      Format/Info : Audio Coding 3
      Mode extension : CM (complete main)
      Codec ID : 2000
      Duration : 54mn 45s
      Bit rate mode : Constant
      Bit rate : 192 Kbps
      Channel(s) : 2 channels
      Channel positions : Front: L R
      Sampling rate : 48.0 KHz
      Bit depth : 16 bits
      Stream size : 75.2 MiB (10%)
      Alignment : Split accross interleaves
      Interleave, duration : 40 ms (1.00 video frame)
      Interleave, preload duration : 500 ms

Скриншоты

[Профиль] [ЛС]
Кто просматривает тему:

Показать сообщения:    

Текущее время: Сегодня 18:24

Часовой пояс: GMT



Вы не можете начинать темы
Вы не можете отвечать на сообщения
Вы не можете редактировать свои сообщения
Вы не можете удалять свои сообщения
Вы не можете голосовать в опросах
Вы не можете прикреплять файлы к сообщениям
Вы не можете скачивать файлы