BBC: История христианства / BBC: A History of Christianity / Сезон: 1 / Эпизод: 1 из 6 [2009, Научно-популярный, HDTVRip 720p] VO (SDI-Media) + Original (Eng) + Sub (Rus)

 
Автор Сообщение

TorrentFilm ®

Пол:

Стаж: 2 года

Сообщений: 7741



Награды: Нет

Торрент-статистика

Создавать темы 28-Дек-2014 00:30

[Цитировать]

--История христианства
A History of Christianity
-- Год выпуска: 2009
Страна: Великобритания
Производство: BBC Television Centre
Продолжительность: 6 х 59 мин.
Перевод: Профессиональный (одноголосый, закадровый), «SDI-Media».
Русские субтитры: есть--Описание:
Сериал рассказывает об истоках христианства и о том, как оно распространилось в Азии, Европе, Африке, Северной и Южной Америках. В основе всех христианских течений лежит одно общее верование, но что разделяет католиков, православных, протестантов или пятидесятников? Христианство стало причиной, как безрассудных поступков, так и источником благочестия и добродетели. Это вероучение прошло преследования, расколы, религиозные войны, ненависть и реформы. Однако сегодня, главным врагом христианства стали апатия и скептицизм. Станет ли этот этап последней главой в истории христианства?--Доп. информация:
Программа подготовлена к показу SDI-Media в 2014 году: перевод Татьяны Вишневской (эп. 1, 2), Ольги Юлдашевой (эп. 3), текст читал Роман Антонович.
Перевод субтитров выполнен на сайте коллективных переводов «Notabenoid»: перевели Torry, Logos71, Lopatenok, Irina73, Tim789, Fritrika, Anjelika9, nastja_igel, Ostrolist, aestasnix, JimMor, antoniolagrande, Zmicieras, SergNev, Ilanna.
Внимание! Раздача ведётся путём добавления новых серий.--См. также:
Артур Древс - Миф о христе - 1924-1925 г.
Джон Робертсон - Первоначальное христианство - 1930 г.
Абрам Ранович - Очерк истории раннехристианской церкви - 1941 г.
Роберт Виппер - Рим и ранее христианство - 1954 г.
Яков Ленцман - Происхождение христианства - 1958 г.
Арчибалд Робертсон - Происхождение христианства - 1959 г.
Абрам Ранович - О раннем христианстве - 1959 г.
Поль Гольбах - Галерея святых - 1962 г.
Александр Каждан - От Христа к Константину - 1965 г.
Иосиф Крывелев - Что знает история об Иисусе Христе? - 1969 г.
Михаил Кубланов - Возникновение христианства. Эпоха. Идеи. Искания - 1974 г.
Иосиф Крывелев - История религий - 1975-1976 г.
Ирина Свенцицкая - Раннее христианство: страницы истории - 1987 г.
Амброджо Донини - У истоков христианства - 1989 г.
Абрам Ранович - Первоисточники по истории раннего христианства - 1990 г.-- --Сэмпл: http://multi-up.com/1020768
Качество: HDTVRip 720p
Формат: MKV
Видео кодек: AVC
Аудио кодек: AC3
Видео: AVC, 1280x720, (16:9), 3 150 Kbps, 25.000 fps
Аудио #1: 48 kHz, AC3 Dolby Digital, 2/0 (L,R) ch, ~192.00 kbps |Rus| «SDI-Media»
Аудио #2: 48 kHz, AC3 Dolby Digital, 2/0 (L,R) ch, ~192.00 kbps |Eng|
Формат субтитров: softsub (SRT), встроенные, отключаемые |Rus|

Список серийЭпизод 1: Первые христиане / The First Christianity, 5 ноября 2009

Описание: В этой серии рассказывается об истинных истоках христианства, и о том, что, возможно, Багдад являлся главным христианским центром, а не Рим, как всегда считалось. Каким образом небольшая иудейская секта стала самым влиятельным религиозным течением в мире?

Эпизод 2: Католицизм: Неожиданный успех Рима / Catholicism: The Unpredictable Rise of Rome, 12 ноября 2009

Описание: В этой серии рассказывается о том, как небольшая иудейская секта, существовавшая в I веке в Палестине, проповедовавшая смирение и бедность, превратилась в самую богатую и могущественную церковь.

Эпизод 3: Православие: Религия империй / Orthodoxy: From Empire to Empire, 19 ноября 2009

Описание: В этой серии рассказывается о православии, которое процветает в России и на Балканах, насчитывая 150 миллионов верующих по всему миру.

Эпизод 4: Reformation: The Individual Before God, 26 ноября 2009

Описание: В этой серии рассказывается о зарождении протестантизма, а также о том, каким образом это течение раскололо христианство на две части.-Ожидается 28 декабря 2014.

Эпизод 5: Protestantism: The Evangelical Explosion, 3 декабря 2009

Описание: В этой серии рассказывается об учении евангельских христиан, которое распространилось по всему миру и характеризуется стремлением иметь личные взаимоотношения с богом.-Ожидается 4 января 2014.

Эпизод 6: God in the Dock, 10 декабря 2009

Ожидается 11 января 2014.
MediaInfo
ОбщееФормат : MatroskaВерсия формата : Version 4 / Version 2Размер файла : 1,46 ГбайтПродолжительность : 59 м.Общий поток : 3536 Кбит/секДата кодирования : UTC 2014-12-15 17:53:43Программа кодирования : mkvmerge v7.1.0 ('Good Love') 32bit built on Jul 27 2014 12:59:18Библиотека кодирования : libebml v1.3.0 + libmatroska v1.4.1DURATION : 00:58:59.616000000NUMBER_OF_FRAMES : 110613NUMBER_OF_BYTES : 84950784_STATISTICS_WRITING_APP : mkvmerge v7.1.0 ('Good Love') 32bit built on Jul 27 2014 12:59:18_STATISTICS_WRITING_DATE_UTC : 2014-12-15 17:53:43_STATISTICS_TAGS : BPS DURATION NUMBER_OF_FRAMES NUMBER_OF_BYTES
ВидеоИдентификатор : 1Формат : AVCФормат/Информация : Advanced Video CodecПрофиль формата : High@L4.1Параметр CABAC формата : ДаПараметр ReFrames формата : 3 кадраИдентификатор кодека : V_MPEG4/ISO/AVCПродолжительность : 59 м.Битрейт : 3150 Кбит/секШирина : 1280 пикселейВысота : 720 пикселейСоотношение сторон : 16:9Режим частоты кадров : ПостоянныйЧастота кадров : 25,000 кадров/секЦветовое пространство : YUVСубдискретизация насыщенности : 4:2:0Битовая глубина : 8 битТип развёртки : ПрогрессивнаяБит/(Пиксели*Кадры) : 0.137Размер потока : 1,27 Гбайт (87%)Библиотека кодирования : x264 core 78 r1318 fe83a90Настройки программы : cabac=1 / ref=3 / deblock=1:0:0 / analyse=0x3:0x113 / me=umh / subme=9 / psy=1 / psy_rd=1.0:0.0 / mixed_ref=1 /me_range=24 / chroma_me=1 / trellis=1 / 8x8dct=1 / cqm=0 / deadzone=21,11 / chroma_qp_offset=-2 / threads=3 / nr=0 / decimate=1 / mbaff=0 /constrained_intra=0 / bframes=3 / b_pyramid=0 / b_adapt=1 / b_bias=0 / direct=1 / wpredb=1 / keyint=100 / keyint_min=25 / scenecut=40 / rc_lookahead=40 /rc=2pass / mbtree=1 / bitrate=3150 / ratetol=1.0 / qcomp=0.60 / qpmin=10 / qpmax=51 / qpstep=4 / cplxblur=20.0 / qblur=0.5 / vbv_maxrate=50000 /vbv_bufsize=50000 / ip_ratio=1.40 / aq=1:1.00Язык : EnglishDefault : ДаForced : НетDURATION : 00:59:00.920000000NUMBER_OF_FRAMES : 88523NUMBER_OF_BYTES : 1394211991_STATISTICS_WRITING_APP : mkvmerge v7.1.0 ('Good Love') 32bit built on Jul 27 2014 12:59:18_STATISTICS_WRITING_DATE_UTC : 2014-12-15 17:53:43_STATISTICS_TAGS : BPS DURATION NUMBER_OF_FRAMES NUMBER_OF_BYTES
Аудио #1Идентификатор : 2Формат : AC-3Формат/Информация : Audio Coding 3Расширение режима : CM (complete main)Параметр Endianness формата : BigИдентификатор кодека : A_AC3Продолжительность : 59 м.Вид битрейта : ПостоянныйБитрейт : 192 Кбит/секКаналы : 2 каналаРасположение каналов : Front: L RЧастота : 48,0 КГцБитовая глубина : 16 битМетод сжатия : С потерямиРазмер потока : 81,0 Мбайт (5%)Язык : RussianDefault : ДаForced : Нет
Аудио #2Идентификатор : 3Формат : AC-3Формат/Информация : Audio Coding 3Расширение режима : CM (complete main)Параметр Endianness формата : BigИдентификатор кодека : A_AC3Продолжительность : 59 м.Вид битрейта : ПостоянныйБитрейт : 192 Кбит/секКаналы : 2 каналаРасположение каналов : Front: L RЧастота : 48,0 КГцБитовая глубина : 16 битМетод сжатия : С потерямиРазмер потока : 81,0 Мбайт (5%)Язык : EnglishDefault : НетForced : Нет
ТекстИдентификатор : 4Формат : UTF-8Идентификатор кодека : S_TEXT/UTF8Идентификатор кодека/Информация : UTF-8 Plain TextЯзык : RussianDefault : ДаForced : Нет

Скриншоты

[Профиль] [ЛС]
Кто просматривает тему:

Показать сообщения:    

Текущее время: Сегодня 02:08

Часовой пояс: GMT



Вы не можете начинать темы
Вы не можете отвечать на сообщения
Вы не можете редактировать свои сообщения
Вы не можете удалять свои сообщения
Вы не можете голосовать в опросах
Вы не можете прикреплять файлы к сообщениям
Вы не можете скачивать файлы