BBC: История древней Британии / A History of Ancient Britain [сезоны 1-2 серии 1-8 из 8] (Ариф Нурмухаммед) [2011-2012 г., Документальный, научно-познавательный, история, археология, исследование, HDTVRip-AVC 720p]

 
Автор Сообщение

skorpionN ®

Пол:

Стаж: 1 год 8 месяцев

Сообщений: 586



Награды: 4 (Подробнее)

Mega Seeder 1 (Количество: 1) Mega Seeder 2 (Количество: 1) Top Releaser 2 (Количество: 1)
Торрент-статистика

Создавать темы 17-Апр-2016 08:56

[Цитировать]

BBC: История древней Британии / A History of Ancient Britain [сезоны 1-2 серии 1-8 из 8]
Год выпуска: 2011
Страна: Великобритания, BBC (British Broadcasting Corporation)
Жанр: Документальный, научно-познавательный, история, археология, палеонтология, исследование
Продолжительность: 8x~от 00:51:00 до 00:51:30
Перевод: Профессиональный (одноголосый)
Режиссер: Ариф Нурмухаммед
В ролях: Ведущий - Нил Оливер (Neil Oliver)
Описание:
Сезон 1 : История древней Британии / A History of Ancient Britain
Русский вариант: Мир Стоунхенджа / World of Stonehenge
Ультрасовременное путешествие и открытие загадок - через мир доисторической Британии, от Ледниковой пустоши 12000 г. до н.э. до Каменного века. В фильме рассказано о последней научной работе детектива в экспериментальной археологии, популярного писателя и телеведущего Нила Оливера.
Как наши предки вышли из последнего ледникового периода, как сельское хозяйство действительно прибыло в Великобританию, и переломные моменты, которые изменили ход истории. Исследуя известные достопримечательности заново, а также мало известные (некоторые из которых, которые содержат даже больше секретов), Нил едет в Карнак, Бретань, где фермеры и охотники-собиратели, столкнулась 7000 лет назад, и в Ирландию, где он находит самую обширную систему Каменного века - скрытую под метровыми слоями торфянников. Этот фильм приводит нас в самое начало цивилизации. Центральное положение в нем занимает сама Земля, во всей ее духовной и культурной славе. Это рассказ о том, как возникла Британия, как тысячелетиями в кузнице природы ковались ее земля и народ. Британия - чужой и странный мир, хранящий тайны нашего доисторического прошлого, от загадочных величественных монументов до волшебных краев, приютивших первых поселенцев. Сегодня ученые и археологи разгадывают тайны древности, обнаруживают сейсмические причины смены эпох.
Список серий:

01. Эпоха оледенения / Age of Ice

Первые люди, пришедшие в Британию, когда она еще была частью Европы, а не островом, были охотники. Они полностью зависели от окружающей среды. О борьбе за выживание во враждебном ледовом мире.

02. Эпоха предков / Age of Ansectors

После оледенения наступила новая эпоха - эпоха неолита, характеризующаяся возникновением земледелия и скотоводства. В результате этого в жизни людей произошли кардинальные перемены...

03. Эпоха космологии / Age of Cosmology

Пять тысяч лет назад люди, жившие по всей Британии, вступили в прежде неведомые духовные отношения. Их духовный взор обратился в Космос...

04. Бронзовый век / Age of Bronze

В двадцать пятом веке до нашей эры в Британии появляется новая технология - использование металла. Это произвело революцию не только в производстве, но и в обществе. Началась эпоха, которую мы называем Бронзовым веком...
Сезон 2 : История Кельтской Британии / A History of Celtic Britain
Русский вариант: Мир после Стоунхенджа / World after Stonehenge
Нил Оливер продолжает свое исследование того, как зародилась Британия и ее народы. Он посещает удивительные места, приступает к работе с экспериментальной командой археологов, и раскрытию древних тайн и чудес, созданными людьми два тысячелетия назад. Сериал рассказывает историю одной из развивающихся стран, начиная с железного века, друидов и римского завоевания. В те далекие времена, Британия показалась бы нам чуждой и неузнаваемой. Но произошла революция в технологиях, ознаменовавшая начало новой эпохи. Основное повествование посвящено одной из самых больших загадок истории. Кто такие были кельты, их религия?
Список серий:

01. Железный век / Age of Iron

Железо как инструментальный материал известно с древнейших времён, самые древние изделия из железа, найденные при археологических раскопках, датируются 4-м тысячелетием до н. э. и относятся к древнешумерской и древнеегипетской цивилизациям. Эпоху в первобытной и раннеклассовой истории человечества, характеризующейся распространением металлургии железа и изготовлением железных орудий называют "Железным веком".

02. Эпоха воинов / Age of Warriors

Железный век - эпоха кельтской славы. Быстрорастущие британские племена демонстрируют воинственность, агрессивность и жестокость. Но вместе с тем появляется и нечто прекрасное: искусство, великолепные мечи невиданной доселе красоты. Кельты подарили нам искусство воинов, друидов и первых королей.

03. Век вторжения / Age of Invasion

Кельтские племена вели торговлю с Европой и заимствовали лучшие изобретения цивилизации. Затем к ним пришли римляне, одержимые жаждой наживы, и все изменилось...

04. Век римлян / Age of Romans

Римские и кельтские идеи и обычаи сосуществовали равноценно. Мы увидим, как римляне приносили цивилизацию в города, и как кельты отстаивали свою самобытность. И как христиане принесли новый мир веры, сотворивший новую культуру.
Качество: HDTVRip-AVC 720p
Формат: MKV
Видео кодек: H.264
Аудио кодек: AC3
Видео: 1280x720 25.00fps 4000 Kbps
Аудио: AC3 2ch, 48kHz, 192 kbps

Скриншоты


MediaInfo:

Format : Matroska
Format version : Version 2
File size : 1.52 GiB
Duration : 51mn 48s
Overall bit rate mode : Variable
Overall bit rate : 4 191 Kbps
Encoded date : UTC 2016-04-14 13:25:37
Writing application : TMPGEnc Video Mastering Works 5 Version. 5.0.6.38
Writing library : TMPGEnc Video Mastering Works 5 Version. 5.0.6.38
Video
ID : 2
Format : AVC
Format/Info : Advanced Video Codec
Format profile : High@L4.1
Format settings, CABAC : Yes
Format settings, ReFrames : 3 frames
Codec ID : V_MPEG4/ISO/AVC
Duration : 51mn 48s
Bit rate mode : Variable
Bit rate : 4 000 Kbps
Maximum bit rate : 8 000 Kbps
Width : 1 280 pixels
Height : 720 pixels
Display aspect ratio : 16:9
Frame rate mode : Constant
Frame rate : 25.000 fps
Standard : NTSC
Color space : YUV
Chroma subsampling : 4:2:0
Bit depth : 8 bits
Scan type : Progressive
Bits/(Pixel*Frame) : 0.174
Stream size : 1.42 GiB (93%)
Writing library : x264 core 114
Encoding settings : cabac=1 / ref=3 / deblock=1:0:0 / analyse=0x3:0x113 / me=hex / subme=7 / psy=1 / psy_rd=1.00:0.00 / mixed_ref=1 / me_range=16 / chroma_me=1 / trellis=1 / 8x8dct=1 / cqm=2 / deadzone=21,11 / fast_pskip=1 / chroma_qp_offset=-4 / threads=6 / sliced_threads=0 / slices=1 / nr=0 / decimate=1 / interlaced=0 / constrained_intra=0 / bframes=3 / b_pyramid=0 / b_adapt=1 / b_bias=0 / direct=1 / weightb=1 / open_gop=0 / weightp=2 / keyint=250 / keyint_min=25 / scenecut=40 / intra_refresh=0 / rc_lookahead=40 / rc=2pass / mbtree=1 / bitrate=4000 / ratetol=1.0 / qcomp=0.60 / qpmin=5 / qpmax=69 / qpstep=4 / cplxblur=20.0 / qblur=0.5 / vbv_maxrate=8000 / vbv_bufsize=7995 / nal_hrd=vbr / ip_ratio=1.40 / aq=1:1.00
Default : Yes
Forced : No
Color primaries : BT.709
Transfer characteristics : BT.709
Matrix coefficients : BT.709
Color range : Limited
Audio
ID : 1
Format : AC-3
Format/Info : Audio Coding 3
Mode extension : CM (complete main)
Format settings, Endianness : Big
Codec ID : A_AC3
Duration : 51mn 48s
Bit rate mode : Constant
Bit rate : 192 Kbps
Channel(s) : 2 channels
Channel positions : Front: L R
Sampling rate : 48.0 KHz
Bit depth : 16 bits
Compression mode : Lossy
Stream size : 71.2 MiB (5%)
Default : Yes
Forced : No
[Профиль] [ЛС]

KiruhaDelMar

Стаж: 1 год 8 месяцев

Сообщений: 246



Награды: Нет

Торрент-статистика

Создавать темы 17-Апр-2016 10:30 (спустя 1 час 33 минуты)

[Цитировать]

Где то я уже это видел, на рутрекере слямзил ?
[Профиль] [ЛС]

skorpionN ®

Пол:

Стаж: 1 год 8 месяцев

Сообщений: 586



Награды: 4 (Подробнее)

Top Releaser 2 (Количество: 1) Mega Seeder 3 (Количество: 1) Mega Seeder 1 (Количество: 1)
Торрент-статистика

Создавать темы 17-Апр-2016 10:50 (спустя 20 минут)

[Цитировать]

93934Где то я уже это видел, на рутрекере слямзил ?
Твоими молитвами hunter
[Профиль] [ЛС]

KiruhaDelMar

Стаж: 1 год 8 месяцев

Сообщений: 246



Награды: Нет

Торрент-статистика

Создавать темы 17-Апр-2016 10:53 (спустя 3 минуты)

[Цитировать]

Ну да, так и есть, хадешку просто прилепил, а я уж думал новое чета paratrooper
[Профиль] [ЛС]

sergun

Стаж: 1 год 8 месяцев

Сообщений: 15



Награды: Нет

Торрент-статистика

Создавать темы 18-Апр-2016 20:23 (спустя 1 день 9 часов)

[Цитировать]

В любом случае сериал классный.
[Профиль] [ЛС]
Кто просматривает тему:

Показать сообщения:    

Текущее время: Сегодня 18:58

Часовой пояс: GMT



Вы не можете начинать темы
Вы не можете отвечать на сообщения
Вы не можете редактировать свои сообщения
Вы не можете удалять свои сообщения
Вы не можете голосовать в опросах
Вы не можете прикреплять файлы к сообщениям
Вы не можете скачивать файлы