BBC: Искусство перевоплощения - метаморфоз / Metamorphosis. The Science of Change [H264/720p - LQ] (2013) HDTVRip

 
Автор Сообщение

sergej644 ®

Пол:

Стаж: 4 года 11 месяцев

Сообщений: 6038

Откуда: Soviet Union



Награды: Нет

Торрент-статистика

Создавать темы 20-Авг-2014 19:25

[Цитировать]

-BBC: Искусство перевоплощения - метаморфоз / Metamorphosis. The Science of Change (2013) HDTVRip- Режиссер / Телекомпания: Дэвид Бригс / BBC Scotland
Год выпуска: 2013
Жанр: Документальный, научно - познавательный
В ролях: Дэвид Мэлоун
Описание:
Идея метаморфоза издавна волновала воображение писателей и художников, изображавших существ, меняющих свой облик, превращаясь в нечто иное. А как природа совершает это обыденное чудо, превращая одно существо в другое? Что стоит за этим на редкость красивым процессом, завладевшим нашим воображением? И может ли это - в определенном смысле - происходить с нами?

Продолжительность: 00:51:02
Качество видео: HDTVRip
Перевод: Одноголосый закадровый, профессиональный
Видеокодек: MPEG-4 AVC/H.264
Битрейт видео: ~2908 Кбит/сек
Размер кадра: 1280 х 720
Аудиокодек: AC3 2.0
Битрейт аудио: 192 Кбит/сек 2 канала

МедиаИнфо

Общее
Уникальный идентификатор : 244763879895625766997165522552630454807 (0xB823CEFDC2076ADE95970C126C0EAA17)
Полное имя : E:\BBC_Metamorphosis_The Science of Change.mkv
Формат : Matroska
Версия формата : Version 4 / Version 2
Размер файла : 1,20 Гбайт
Продолжительность : 51 м.
Режим общего битрейта : Постоянный
Общий поток : 3359 Кбит/сек
Дата кодирования : UTC 2014-05-30 14:20:03
Программа кодирования : mkvmerge v6.8.0 ('Theme for Great Cities') 64bit built on Mar 2 2014 21:34:26
Библиотека кодирования : libebml v1.3.0 + libmatroska v1.4.1
Видео
Идентификатор : 1
Формат : AVC
Формат/Информация : Advanced Video Codec
Профиль формата : [url=mailto:High@L3.1]High@L3.1[/url]
Параметр CABAC формата : Да
Параметр ReFrames формата : 3 кадра
Идентификатор кодека : V_MPEG4/ISO/AVC
Продолжительность : 51 м.
Вид битрейта : Постоянный
Битрейт : 2908 Кбит/сек
Номинальный битрейт : 3200 Кбит/сек / 3200 Кбит/сек
Ширина : 1280 пикселей
Высота : 720 пикселей
Соотношение сторон : 16:9
Режим частоты кадров : Постоянный
Частота кадров : 25,000 кадров/сек
Стандарт вещания : NTSC
Цветовое пространство : YUV
Субдискретизация насыщенности : 4:2:0
Битовая глубина : 8 бит
Тип развёртки : Прогрессивная
Бит/(Пиксели*Кадры) : 0.126
Размер потока : 1,04 Гбайт (87%)
Библиотека кодирования : x264 core 114
Настройки программы : cabac=1 / ref=3 / deblock=1:0:0 / analyse=0x3:0x113 / me=hex / subme=7 / psy=1 / psy_rd=1.00:0.00 / mixed_ref=1 / me_range=16 / chroma_me=1 / trellis=1 / 8x8dct=1 / cqm=2 / deadzone=21,11 / fast_pskip=1 / chroma_qp_offset=-2 / threads=6 / sliced_threads=0 / slices=1 / nr=0 / decimate=1 / interlaced=0 / constrained_intra=0 / bframes=3 / b_pyramid=0 / b_adapt=1 / b_bias=0 / direct=1 / weightb=1 / open_gop=0 / weightp=2 / keyint=250 / keyint_min=25 / scenecut=40 / intra_refresh=0 / rc_lookahead=40 / rc=cbr / mbtree=1 / bitrate=3200 / ratetol=1.0 / qcomp=0.60 / qpmin=3 / qpmax=69 / qpstep=4 / vbv_maxrate=3200 / vbv_bufsize=3194 / nal_hrd=cbr / ip_ratio=1.40 / aq=1:1.00
Default : Да
Forced : Нет
Основные цвета : BT.709
Характеристики трансфера : BT.709
Коэффициенты матрицы : BT.709
Аудио #1
Идентификатор : 2
Формат : AC-3
Формат/Информация : Audio Coding 3
Расширение режима : CM (complete main)
Параметр Endianness формата : Big
Идентификатор кодека : A_AC3
Продолжительность : 51 м.
Вид битрейта : Постоянный
Битрейт : 192 Кбит/сек
Каналы : 2 канала
Расположение каналов : Front: L R
Частота : 48,0 КГц
Битовая глубина : 16 бит
Метод сжатия : С потерями
Размер потока : 70,1 Мбайт (6%)
Язык : Russian
Default : Да
Forced : Нет
Аудио #2
Идентификатор : 3
Формат : AC-3
Формат/Информация : Audio Coding 3
Расширение режима : CM (complete main)
Параметр Endianness формата : Big
Идентификатор кодека : A_AC3
Продолжительность : 51 м.
Вид битрейта : Постоянный
Битрейт : 192 Кбит/сек
Каналы : 2 канала
Расположение каналов : Front: L R
Частота : 48,0 КГц
Битовая глубина : 16 бит
Метод сжатия : С потерями
Размер потока : 70,1 Мбайт (6%)
Язык : English
Default : Нет
Forced : Нет
Скриншоты:- --Время раздачи: с 10:00 по 24:00 по Киеву
[Профиль] [ЛС]
Кто просматривает тему:

Показать сообщения:    

Текущее время: Сегодня 14:32

Часовой пояс: GMT



Вы не можете начинать темы
Вы не можете отвечать на сообщения
Вы не можете редактировать свои сообщения
Вы не можете удалять свои сообщения
Вы не можете голосовать в опросах
Вы не можете прикреплять файлы к сообщениям
Вы не можете скачивать файлы