BBC: Искусство Америки / Art of America [серии 1-3 из 3] (Пол Тилзи / Paul Tilzey, Йен Лиз / Ian Leese) [2011 г., Документальный, история искусств, HDTVRip 720p]

 
Автор Сообщение

skorpionN ®

Пол:

Стаж: 1 год 8 месяцев

Сообщений: 591



Награды: 4 (Подробнее)

Mega Seeder 1 (Количество: 1) Mega Seeder 2 (Количество: 1) Top Releaser 2 (Количество: 1)
Торрент-статистика

Создавать темы 03-Июн-2016 18:28

[Цитировать]

BBC: Искусство Америки / Art of America [серии 1-3 из 3]
Год выпуска: 2011
Страна: Великобритания
Жанр: Документальный, история искусств
Продолжительность: 3x~00:51:00
Перевод: Профессиональный (двухголосый), Телеканал - 24 Doc
Режиссер: Пол Тилзи / Paul Tilzey, Йен Лиз / Ian Leese
В ролях: Ведущий: Эндрю Грэм-Диксон
Доп. информация: Видеряд адаптрирован для русской аудиодорожки
Описание: Искусство Америки формировалось под влиянием этнического и расового многообразия страны. Значительное влияние на неё оказали выходцы из таких стран, как Ирландия, Германия, Польша, Италия, потомки привезенных из Африки рабов, а также американские индейцы и коренные жители страны. Тем не менее, решающий вклад сделала культура выходцев из Англии, что распространяли английский язык, правовую систему и другие культурные достижения. Открытие и освоение Нового Света дало толчок развитию торговли, мореплавания и промышленности. Европейцы принесли в Америку более высокий общественный строй. Однако коренной перелом в судьбах американских народов принял на редкость мучительный, насильственный характер. Он сопровождался чудовищным кровопролитием, зверским уничтожением миллионов коренных жителей, а в тех областях, где существовала великая древняя культура,— ее варварским разрушением. Колонизация ввергла народы Америки в пучину неисчерпаемых страданий, нищеты, рабства и бесправия.
Список серий:
01. В поисках Рая / Looking for Paradise
02. Современные мечты / Modern Dreams
03. Заглянуть в глубь / What Lies Beneath

Качество: HDTVRip 720p
Формат: MKV
Видео кодек: H.264
Аудио кодек: AC3
Видео: 1280x720 25fps 5000 Kbps
Аудио: AC3 2ch, 48kHz, 192 kbps

Скриншоты


MediaInfo:

Format : Matroska
Format version : Version 4 / Version 2
File size : 1.84 GiB
Duration : 50mn 55s
Overall bit rate mode : Variable
Overall bit rate : 5 173 Kbps
Encoded date : UTC 2016-06-01 21:05:21
Writing application : mkvmerge v7.3.0 ('Nouages') 64bit built on Oct 22 2014 18:53:34
Writing library : libebml v1.3.0 + libmatroska v1.4.1
DURATION : 00:50:55.920000000
NUMBER_OF_FRAMES : 76398
NUMBER_OF_BYTES : 1902169584
_STATISTICS_WRITING_APP : mkvmerge v7.3.0 ('Nouages') 64bit built on Oct 22 2014 18:53:34
_STATISTICS_WRITING_DATE_UTC : 2016-06-01 21:05:21
_STATISTICS_TAGS : BPS DURATION NUMBER_OF_FRAMES NUMBER_OF_BYTES
Video
ID : 1
Format : AVC
Format/Info : Advanced Video Codec
Format profile : High@L4.1
Format settings, CABAC : Yes
Format settings, ReFrames : 3 frames
Codec ID : V_MPEG4/ISO/AVC
Duration : 50mn 55s
Bit rate mode : Variable
Bit rate : 5 000 Kbps
Maximum bit rate : 8 000 Kbps
Width : 1 280 pixels
Height : 720 pixels
Display aspect ratio : 16:9
Frame rate mode : Constant
Frame rate : 25.000 fps
Standard : NTSC
Color space : YUV
Chroma subsampling : 4:2:0
Bit depth : 8 bits
Scan type : Progressive
Bits/(Pixel*Frame) : 0.217
Stream size : 1.74 GiB (94%)
Writing library : x264 core 114
Encoding settings : cabac=1 / ref=3 / deblock=1:0:0 / analyse=0x3:0x113 / me=hex / subme=7 / psy=1 / psy_rd=1.00:0.00 / mixed_ref=1 / me_range=16 / chroma_me=1 / trellis=1 / 8x8dct=1 / cqm=2 / deadzone=21,11 / fast_pskip=1 / chroma_qp_offset=-4 / threads=6 / sliced_threads=0 / slices=1 / nr=0 / decimate=1 / interlaced=0 / constrained_intra=0 / bframes=3 / b_pyramid=0 / b_adapt=1 / b_bias=0 / direct=1 / weightb=1 / open_gop=0 / weightp=2 / keyint=250 / keyint_min=25 / scenecut=40 / intra_refresh=0 / rc_lookahead=40 / rc=2pass / mbtree=1 / bitrate=5000 / ratetol=1.0 / qcomp=0.60 / qpmin=5 / qpmax=69 / qpstep=4 / cplxblur=20.0 / qblur=0.5 / vbv_maxrate=8000 / vbv_bufsize=7995 / nal_hrd=vbr / ip_ratio=1.40 / aq=1:1.00
Default : Yes
Forced : No
Color primaries : BT.709
Transfer characteristics : BT.709
Matrix coefficients : BT.709
Audio
ID : 2
Format : AC-3
Format/Info : Audio Coding 3
Mode extension : CM (complete main)
Format settings, Endianness : Big
Codec ID : A_AC3
Duration : 50mn 55s
Bit rate mode : Constant
Bit rate : 192 Kbps
Channel(s) : 2 channels
Channel positions : Front: L R
Sampling rate : 48.0 KHz
Bit depth : 16 bits
Compression mode : Lossy
Stream size : 69.9 MiB (4%)
Default : Yes
Forced : No
[Профиль] [ЛС]
Кто просматривает тему:

Показать сообщения:    

Текущее время: Сегодня 00:13

Часовой пояс: GMT



Вы не можете начинать темы
Вы не можете отвечать на сообщения
Вы не можете редактировать свои сообщения
Вы не можете удалять свои сообщения
Вы не можете голосовать в опросах
Вы не можете прикреплять файлы к сообщениям
Вы не можете скачивать файлы