BBC: Загадка римских катакомб / The Catacomb Mystery (Пол Олдинг) [2013 г., Документальный, научно-познавательный, история, HDTVRip 720p]

 
Автор Сообщение

skorpionN ®

Пол:

Стаж: 1 год 8 месяцев

Сообщений: 585



Награды: 4 (Подробнее)

Top Releaser 2 (Количество: 1) Mega Seeder 1 (Количество: 1) Mega Seeder 2 (Количество: 1)
Торрент-статистика

Создавать темы 27-Окт-2015 14:27

[Цитировать]

BBC: Загадка римских катакомб / The Catacomb Mystery
Год выпуска: 2013
Страна: Великобритания, BBC
Жанр: Документальный, научно-познавательный, история
Продолжительность: 00:51:55
Перевод: Профессиональный (одноголосый)
Режиссер: Пол Олдинг
Описание: Катакомбы Рима - сеть античных катакомб, использовавшихся как места погребений, по большей части в период раннего христианства. Всего в Риме насчитывают более 60 различных катакомб (150—170 км длиной, около 750 000 захоронений), большинство из которых расположены под землей вдоль Аппиевой дороги. Эти катакомбы представляют собой систему подземных ходов из туфа, зачастую образующих лабиринты. В их стенах для погребений проделывались прямоугольные ниши (лат. loculi) разной величины (главным образом для одного умершего, иногда для двух, и редко — для нескольких тел). На сегодняшний день почти все ниши открыты и пусты, однако сохранились и до сих пор закрытые (например, в катакомбах Панфила). С конца IX века посещение римских катакомб, лишившихся привлекавших паломников мощей, практически прекращаются, в XI—XII веках описаны единичные случаи подобных визитов.
Качество: HDTVRip 720p
Формат: MKV
Видео кодек: H.264
Аудио кодек: AC3
Видео: 1280x720 25.00fps 4661 Kbps
Аудио: AC3, 2ch, 192 kbps, 48 kHz

Скриншоты


MediaInfo:

Format : Matroska
Format version : Version 4 / Version 2
File size : 1.80 GiB
Duration : 51mn 55s
Overall bit rate mode : Constant
Overall bit rate : 4 952 Kbps
Encoded date : UTC 2015-10-27 14:11:23
Writing application : mkvmerge v7.3.0 ('Nouages') 64bit built on Oct 22 2014 18:53:34
Writing library : libebml v1.3.0 + libmatroska v1.4.1
DURATION : 00:51:55.440000000
NUMBER_OF_FRAMES : 77886
NUMBER_OF_BYTES : 1852894663
_STATISTICS_WRITING_APP : mkvmerge v7.3.0 ('Nouages') 64bit built on Oct 22 2014 18:53:34
_STATISTICS_WRITING_DATE_UTC : 2015-10-27 14:11:23
_STATISTICS_TAGS : BPS DURATION NUMBER_OF_FRAMES NUMBER_OF_BYTES
Video
ID : 1
Format : AVC
Format/Info : Advanced Video Codec
Format profile : High@L4.1
Format settings, CABAC : Yes
Format settings, ReFrames : 3 frames
Codec ID : V_MPEG4/ISO/AVC
Duration : 51mn 55s
Bit rate mode : Constant
Bit rate : 4 661 Kbps
Nominal bit rate : 5 000 Kbps / 5 000 Kbps
Width : 1 280 pixels
Height : 720 pixels
Display aspect ratio : 16:9
Frame rate mode : Constant
Frame rate : 25.000 fps
Standard : NTSC
Color space : YUV
Chroma subsampling : 4:2:0
Bit depth : 8 bits
Scan type : Progressive
Bits/(Pixel*Frame) : 0.202
Stream size : 1.69 GiB (94%)
Writing library : x264 core 114
Encoding settings : cabac=1 / ref=3 / deblock=1:0:0 / analyse=0x3:0x113 / me=hex / subme=7 / psy=1 / psy_rd=1.00:0.00 / mixed_ref=1 / me_range=16 / chroma_me=1 / trellis=1 / 8x8dct=1 / cqm=2 / deadzone=21,11 / fast_pskip=1 / chroma_qp_offset=-2 / threads=6 / sliced_threads=0 / slices=1 / nr=0 / decimate=1 / interlaced=0 / constrained_intra=0 / bframes=3 / b_pyramid=0 / b_adapt=1 / b_bias=0 / direct=1 / weightb=1 / open_gop=0 / weightp=2 / keyint=250 / keyint_min=25 / scenecut=40 / intra_refresh=0 / rc_lookahead=40 / rc=cbr / mbtree=1 / bitrate=5000 / ratetol=1.0 / qcomp=0.60 / qpmin=3 / qpmax=69 / qpstep=4 / vbv_maxrate=5000 / vbv_bufsize=4997 / nal_hrd=cbr / ip_ratio=1.40 / aq=1:1.00
Default : Yes
Forced : No
Color primaries : BT.709
Transfer characteristics : BT.709
Matrix coefficients : BT.709
Color range : Limited
Audio
ID : 2
Format : AC-3
Format/Info : Audio Coding 3
Mode extension : CM (complete main)
Format settings, Endianness : Big
Codec ID : A_AC3
Duration : 51mn 55s
Bit rate mode : Constant
Bit rate : 192 Kbps
Channel(s) : 2 channels
Channel positions : Front: L R
Sampling rate : 48.0 KHz
Bit depth : 16 bits
Compression mode : Lossy
Stream size : 71.3 MiB (4%)
Default : Yes
Forced : No
[Профиль] [ЛС]

KiruhaDelMar

Стаж: 1 год 8 месяцев

Сообщений: 246



Награды: Нет

Торрент-статистика

Создавать темы 28-Окт-2015 05:47 (спустя 15 часов)

[Цитировать]

Было respect
[Профиль] [ЛС]
Кто просматривает тему:

Показать сообщения:    

Текущее время: Сегодня 10:49

Часовой пояс: GMT



Вы не можете начинать темы
Вы не можете отвечать на сообщения
Вы не можете редактировать свои сообщения
Вы не можете удалять свои сообщения
Вы не можете голосовать в опросах
Вы не можете прикреплять файлы к сообщениям
Вы не можете скачивать файлы