BBC: Забытые британские рабовладельцы / Britain's Forgotten Slave Owners [серии 1-2 из 2] (James Van Der Pool, Ben Crichton) [2015 г., Документальный, история, исследования, DVB]

 
Автор Сообщение

skorpionN ®

Пол:

Стаж: 2 года 7 месяцев

Сообщений: 830



Награды: 4 (Подробнее)

Top Releaser 2 (Количество: 1) Mega Seeder 3 (Количество: 1) Mega Seeder 1 (Количество: 1)
Торрент-статистика

Создавать темы 03-Авг-2017 14:54

[Цитировать]

BBC: Забытые британские рабовладельцы / Britain's Forgotten Slave Owners [серии 1-2 из 2]
Год выпуска: 2015
Страна: Великобритания, BBC History Production London
Жанр: Документальный, история, исследования
Продолжительность: 00:48:25+00:48:21
Перевод: Профессиональный (двухголосый)
Режиссер: James Van Der Pool, Ben Crichton
В ролях: ведущий - историк David Olusoga
Описание: Почти два века эти документы пребывали в забвении, даже среди историков. Рабский труд служил двигателем британской экономики. Когда его наконец отменили, рабовладельцы потребовали компенсации, сумма ее равнялась 17 млрд. сегодняшних фунтов. Эти деньги легли в основание современного мира.
Список серий:
01. Прибыли и убытки / Profit and Loss
02. Цена свободы / The Price of Freedom

Доп. информация: Награды: Премия BAFTA в области телевидения в номинации «Лучшая специализированная документальная передача»
Качество: DVB
Формат: MPEG - TS
Видео кодек: MPEG2
Аудио кодек: MPEG Audio
Видео: 720х576 (4:3) анаморфный (768x576) 25fps ~2060 Kbps
Аудио: MPEG Audio 2 2ch, 48kHz, 192 kbps

Скриншоты


MediaInfo:

Format : MPEG-TS
File size : 820 MiB
Duration : 48 min 21 s
Overall bit rate mode : Variable
Overall bit rate : 2 370 kb/s
Video
ID : 222 (0xDE)
Menu ID : 1822 (0x71E)
Format : MPEG Video
Format version : Version 2
Format profile : Main@Main
Format settings, BVOP : Yes
Format settings, Matrix : Custom
Format settings, GOP : M=3, N=15
Format settings, picture struc : Frame
Codec ID : 2
Duration : 48 min 21 s
Bit rate mode : Variable
Bit rate : 2 059 kb/s
Maximum bit rate : 9 800 kb/s
Width : 720 pixels
Height : 576 pixels
Display aspect ratio : 4:3
Frame rate : 25.000 FPS
Standard : PAL
Color space : YUV
Chroma subsampling : 4:2:0
Bit depth : 8 bits
Scan type : Interlaced
Scan order : Top Field First
Compression mode : Lossy
Bits/(Pixel*Frame) : 0.199
Time code of first frame : 00:00:00:00
Time code source : Group of pictures header
GOP, Open/Closed : Open
GOP, Open/Closed of first fram : Closed
Stream size : 712 MiB (87%)
Audio
ID : 322 (0x142)
Menu ID : 1822 (0x71E)
Format : MPEG Audio
Format version : Version 1
Format profile : Layer 2
Codec ID : 3
Duration : 48 min 21 s
Bit rate mode : Constant
Bit rate : 192 kb/s
Channel(s) : 2 channels
Sampling rate : 48.0 kHz
Compression mode : Lossy
Stream size : 66.4 MiB (8%)
Language : Russian
[Профиль] [ЛС]
Кто просматривает тему:

Показать сообщения:    

Текущее время: Сегодня 05:51

Часовой пояс: GMT



Вы не можете начинать темы
Вы не можете отвечать на сообщения
Вы не можете редактировать свои сообщения
Вы не можете удалять свои сообщения
Вы не можете голосовать в опросах
Вы не можете прикреплять файлы к сообщениям
Вы не можете скачивать файлы