BBC: Жизнь в воздухе / Life In The Air [серии 1-3 из 3] (James Bricknell) [2016 г., Документальный, научно-популярный, HDTVRip-AVC 720p]

 
Автор Сообщение

skorpionN ®

Пол:

Стаж: 2 года 7 месяцев

Сообщений: 833



Награды: 4 (Подробнее)

Top Releaser 2 (Количество: 1) Mega Seeder 3 (Количество: 1) Mega Seeder 1 (Количество: 1)
Торрент-статистика

Создавать темы 23-Май-2017 21:26

[Цитировать]

BBC: Жизнь в воздухе / Life In The Air [серии 1-3 из 3]
Год выпуска: 2016
Страна: Великобритания, BBC Natural History
Жанр: Документальный, научно-популярный
Продолжительность: 00:48:17+00:48:23+00:48:51
Перевод: Профессиональный (двухголосый), переведено и озвучено на студии SDI Media Россия
Текст читают: Наталья Зубкова и Владимир Рыбальченко
Режиссер: James Bricknell
Описание: Небо, одно из самых удивительных мест обитания. На Земле много животных способных на то о чем мы можем только мечтать - подняться в воздух. Одни-проводят в воздухе всю жизнь, другие, только секунды. Мы узнаем какие удивительные животные поднимаются в воздух и какие трюки они используют для этого. С помощью специально обученных животных, новейших технологий и спецэффектов мы сделаем поразительные открытия, которые объясняют как животные поднимаются в воздух. Это ЖИЗНЬ В ВОЗДУХЕ
Список серий:
01. Вопреки гравитации / Defying Gravity
02. Хозяева неба / Masters of the Sky
03. Час пик в небесах (Переполненное небо) / Crowded Skies

Качество: HDTVRip-AVC 720p
Формат: MKV
Видео кодек: H.264
Аудио кодек: AC3
Видео: 1280x720 25.00fps 4500 Kbp
Аудио 1: (Rus) AC3 2ch, 48kHz, 192 kbps
Аудио 2: (En) AC3 2ch, 48kHz, 192 kbps

Скриншоты


MediaInfo:

Format : Matroska
Format version : Version 4 / Version 2
File size : 1.66 GiB
Duration : 48 min 51 s
Overall bit rate mode : Variable
Overall bit rate : 4 879 kb/s
Encoded date : UTC 2017-05-23 20:22:53
Writing application : mkvmerge v6.9.1 ('Blue Panther') 64bit built on Apr 18 2014 18:23:38
Writing library : libebml v1.3.0 + libmatroska v1.4.1
Video
ID : 1
Format : AVC
Format/Info : Advanced Video Codec
Format profile : High@L4.1
Format settings, CABAC : Yes
Format settings, ReFrames : 3 frames
Codec ID : V_MPEG4/ISO/AVC
Duration : 48 min 51 s
Bit rate mode : Variable
Bit rate : 4 500 kb/s
Maximum bit rate : 8 000 kb/s
Width : 1 280 pixels
Height : 720 pixels
Display aspect ratio : 16:9
Frame rate mode : Constant
Frame rate : 25.000 FPS
Standard : NTSC
Color space : YUV
Chroma subsampling : 4:2:0
Bit depth : 8 bits
Scan type : Progressive
Bits/(Pixel*Frame) : 0.195
Stream size : 1.50 GiB (90%)
Writing library : x264 core 114
Encoding settings : cabac=1 / ref=3 / deblock=1:0:0 / analyse=0x3:0x113 / me=hex / subme=7 / psy=1 / psy_rd=1.00:0.00 / mixed_ref=1 / me_range=16 / chroma_me=1 / trellis=1 / 8x8dct=1 / cqm=2 / deadzone=21,11 / fast_pskip=1 / chroma_qp_offset=-4 / threads=6 / sliced_threads=0 / slices=1 / nr=0 / decimate=1 / interlaced=0 / constrained_intra=0 / bframes=3 / b_pyramid=0 / b_adapt=1 / b_bias=0 / direct=1 / weightb=1 / open_gop=0 / weightp=2 / keyint=250 / keyint_min=25 / scenecut=40 / intra_refresh=0 / rc_lookahead=40 / rc=2pass / mbtree=1 / bitrate=4500 / ratetol=1.0 / qcomp=0.60 / qpmin=5 / qpmax=69 / qpstep=4 / cplxblur=20.0 / qblur=0.5 / vbv_maxrate=8000 / vbv_bufsize=7995 / nal_hrd=vbr / ip_ratio=1.40 / aq=1:1.00
Default : Yes
Forced : No
Color range : Limited
Color primaries : BT.709
Transfer characteristics : BT.709
Matrix coefficients : BT.709
Audio #1
ID : 2
Format : AC-3
Format/Info : Audio Coding 3
Mode extension : CM (complete main)
Format settings, Endianness : Big
Codec ID : A_AC3
Duration : 48 min 51 s
Bit rate mode : Constant
Bit rate : 192 kb/s
Channel(s) : 2 channels
Channel positions : Front: L R
Sampling rate : 48.0 kHz
Frame rate : 31.250 FPS (1536 spf)
Compression mode : Lossy
Stream size : 67.1 MiB (4%)
Language : Russian
Default : Yes
Forced : No
Audio #2
ID : 3
Format : AC-3
Format/Info : Audio Coding 3
Mode extension : CM (complete main)
Format settings, Endianness : Big
Codec ID : A_AC3
Duration : 48 min 51 s
Bit rate mode : Constant
Bit rate : 192 kb/s
Channel(s) : 2 channels
Channel positions : Front: L R
Sampling rate : 48.0 kHz
Frame rate : 31.250 FPS (1536 spf)
Compression mode : Lossy
Stream size : 67.1 MiB (4%)
Language : English
Default : No
Forced : Yes
[Профиль] [ЛС]

ARI71

Стаж: 1 год 2 месяца

Сообщений: 82



Награды: Нет

Торрент-статистика

Создавать темы 24-Май-2017 09:29 (спустя 12 часов)

[Цитировать]

Отличный релиз и качественный рип. Спасибо!
[Профиль] [ЛС]

skorpionN ®

Пол:

Стаж: 2 года 7 месяцев

Сообщений: 833



Награды: 4 (Подробнее)

Mega Seeder 3 (Количество: 1) Mega Seeder 1 (Количество: 1) Top Releaser 2 (Количество: 1)
Торрент-статистика

Создавать темы 24-Май-2017 09:29 (спустя 37 секунд)

[Цитировать]

Проморгали его на других трекерах
[Профиль] [ЛС]

ARI71

Стаж: 1 год 2 месяца

Сообщений: 82



Награды: Нет

Торрент-статистика

Создавать темы 24-Май-2017 09:35 (спустя 5 минут)

[Цитировать]

Пускай не спят!
[Профиль] [ЛС]
Кто просматривает тему:

Показать сообщения:    

Текущее время: Сегодня 05:01

Часовой пояс: GMT



Вы не можете начинать темы
Вы не можете отвечать на сообщения
Вы не можете редактировать свои сообщения
Вы не можете удалять свои сообщения
Вы не можете голосовать в опросах
Вы не можете прикреплять файлы к сообщениям
Вы не можете скачивать файлы