BBC: Еда будущего / Tomorrow's Food [серии 1-3 из 3] (Tom Watt-Smith, Penny Palmer, Eileen Inkson) [2015 г., Документальный, научно-познавательный, HDTVRip 720p]

 
Автор Сообщение

skorpionN ®

Пол:

Стаж: 1 год 8 месяцев

Сообщений: 585



Награды: 4 (Подробнее)

Mega Seeder 2 (Количество: 1) Top Releaser 2 (Количество: 1) Mega Seeder 3 (Количество: 1)
Торрент-статистика

Создавать темы 16-Сен-2016 14:05

[Цитировать]

BBC: Еда будущего / Tomorrow's Food [серии 1-3 из 3]
Год выпуска: 2015
Страна: Великобритания, BBC Science Produktion London
Жанр: Документальный, научно-познавательный
Продолжительность: 3x~00:48:30
Перевод: Профессиональный (двухголосый), Видеофильм ТВ
Режиссер: Tom Watt-Smith, Penny Palmer, Eileen Inkson
В ролях: Ирландский комик и телеведущий - Дара О Бриэн / Dara Ó Briain, звёздный шеф-повар Анджела Хартнетт / Angela Hartnett, эксперт по фруктам и овощам - Крис Бавин / Chris Bavin, знаток технологий, доктор - Шини Сомара / Shini Somara
Описание: В этом мини-сериале Дара О Бриэн с командой специалистов отправится в различные уголки земного шара, чтобы показать нам впечатляющие будущее наших завтраков, обедов и ужинов. Узнайте над какими проблемами и вопросами работают учёные и как они их решают.
Описание серий:
01. Можно ли вырастить фрукты и овощи без почвы? А посеять облака и избавиться от засухи? Или добиться определенного вкуса с помощью устройства на языке? Да! Так же, как и создать еду с бесконечным сроком хранения. Об этом и многом другом - в первой части документального фильма "Еда будущего"!
02. Канада. Самая крупная ферма в мире. Сотни миллионов голов. Сверчков. Действительно ли это еда будущего, несмотря на обилие содержащихся в них белков и витаминов?
03. Фиолетовые томаты, снижающие риск сердечных заболеваний, инсульта и даже рака. Козы, которые дают молоко, по количеству питательных веществ не уступающее грудному человеческому. Все это не фантастика, а вполне реальная Еда будущего!
Качество: HDTVRip 720p
Формат: MKV
Видео кодек: H.264
Аудио кодек: AC3
Видео: 1280x720 25.00 fps 3500 kbps
Аудио: AC3 2ch, 48kHz, 192 kbps

MediaInfo:

Format : Matroska
Format version : Version 4 / Version 2
File size : 1.25 GiB
Duration : 48 min
Overall bit rate mode : Variable
Overall bit rate : 3 694 kb/s
Encoded date : UTC 2016-09-15 15:02:10
Writing application : TMPGEnc Video Mastering Works 6 Trial with Movie Plug-in Version. 6.1.5.26
Writing library : TMPGEnc Video Mastering Works 6 Trial with Movie Plug-in Version. 6.1.5.26
Video
ID : 2
Format : AVC
Format/Info : Advanced Video Codec
Format profile : High@L4.1
Format settings, CABAC : Yes
Format settings, ReFrames : 9 frames
Codec ID : V_MPEG4/ISO/AVC
Duration : 48 min
Bit rate mode : Variable
Bit rate : 3 500 kb/s
Maximum bit rate : 18.4 Mb/s
Width : 1 280 pixels
Height : 720 pixels
Display aspect ratio : 16:9
Frame rate mode : Constant
Frame rate : 25.000 FPS
Standard : Component
Color space : YUV
Chroma subsampling : 4:2:0
Bit depth : 8 bits
Scan type : Progressive
Bits/(Pixel*Frame) : 0.152
Stream size : 1.16 GiB (93%)
Writing library : x264 core 144
Encoding settings : cabac=1 / ref=9 / deblock=1:0:0 / analyse=0x3:0x113 / me=hex / subme=7 / psy=1 / psy_rd=1.00:0.00 / mixed_ref=1 / me_range=16 / chroma_me=1 / trellis=1 / 8x8dct=1 / cqm=1 / deadzone=21,11 / fast_pskip=1 / chroma_qp_offset=-2 / threads=6 / lookahead_threads=1 / sliced_threads=0 / slices=1 / nr=0 / decimate=1 / interlaced=0 / minigop=0 / stitchable=1 / constrained_intra=0 / bframes=3 / b_pyramid=0 / b_adapt=1 / b_bias=0 / direct=1 / weightb=1 / open_gop=1 / weightp=2 / keyint=250 / keyint_min=25 / scenecut=40 / intra_refresh=0 / rc_lookahead=40 / rc=2pass / mbtree=1 / bitrate=3500 / ratetol=1.0 / qcomp=0.60 / qpmin=3 / qpmax=69 / qpstep=4 / cplxblur=20.0 / qblur=0.5 / vbv_maxrate=18400 / vbv_bufsize=18400 / nal_hrd=vbr / filler=0 / ip_ratio=1.40 / aq=1:1.00
Default : Yes
Forced : No
Color range : Limited
Color primaries : BT.709
Transfer characteristics : BT.709
Matrix coefficients : BT.709
Audio
ID : 1
Format : AC-3
Format/Info : Audio Coding 3
Mode extension : CM (complete main)
Format settings, Endianness : Big
Codec ID : A_AC3
Duration : 48 min
Bit rate mode : Constant
Bit rate : 192 kb/s
Channel(s) : 2 channels
Channel positions : Front: L R
Sampling rate : 48.0 kHz
Frame rate : 31.250 FPS (1536 spf)
Compression mode : Lossy
Stream size : 66.3 MiB (5%)
Default : Yes
Forced : No


Последний раз редактировалось: skorpionN (2016-09-16 16:47), всего редактировалось 4 раз(а)
[Профиль] [ЛС]

ARI71

Стаж: 3 месяца 22 дня

Сообщений: 62



Награды: Нет

Торрент-статистика

Создавать темы 16-Сен-2016 14:44 (спустя 38 минут)

[Цитировать]

Спасибо, забираю!
[Профиль] [ЛС]

KiruhaDelMar

Стаж: 1 год 8 месяцев

Сообщений: 246



Награды: Нет

Торрент-статистика

Создавать темы 17-Сен-2016 01:40 (спустя 10 часов)

[Цитировать]

Так вот кто на акс все сливает, а я думал показалось.
Все места рыбные рассекретили bn дети без конфет остались
[Профиль] [ЛС]

skorpionN ®

Пол:

Стаж: 1 год 8 месяцев

Сообщений: 585



Награды: 4 (Подробнее)

Mega Seeder 1 (Количество: 1) Mega Seeder 2 (Количество: 1) Mega Seeder 3 (Количество: 1)
Торрент-статистика

Создавать темы 17-Сен-2016 05:55 (спустя 4 часа)

[Цитировать]

Я не заливаю, делать мне нечего или как?
[Профиль] [ЛС]

KiruhaDelMar

Стаж: 1 год 8 месяцев

Сообщений: 246



Награды: Нет

Торрент-статистика

Создавать темы 17-Сен-2016 19:26 (спустя 13 часов)

[Цитировать]

jest не тормози зизи
[Профиль] [ЛС]
Кто просматривает тему:

Показать сообщения:    

Текущее время: Сегодня 02:42

Часовой пояс: GMT



Вы не можете начинать темы
Вы не можете отвечать на сообщения
Вы не можете редактировать свои сообщения
Вы не можете удалять свои сообщения
Вы не можете голосовать в опросах
Вы не можете прикреплять файлы к сообщениям
Вы не можете скачивать файлы