BBC: Дэвид Бекхэм: Путешествие в неизведанное / David Beckham: Into the Unknown (2014) SATRip

 
Автор Сообщение

sergej644 ®

Пол:

Стаж: 4 года 11 месяцев

Сообщений: 6042

Откуда: Soviet Union



Награды: Нет

Торрент-статистика

Создавать темы 20-Авг-2014 19:29

[Цитировать]

-BBC: Дэвид Бекхэм: Путешествие в неизведанное / David Beckham: Into the Unknown (2014) SATRip- Режиссер / Телекомпания: Энтони Мэндлер / ВВС
Страна: Великобритания
Год выпуска: 2014
Жанр: Документальный, Видовой, Спорт
Описание:
Суперзвезда футбола Дэвид Бекхэм завершил карьеру игрока. Теперь у него есть возможность заниматься тем, чем он хочет, и Дэвид вместе с тремя ближайшими друзьями отправляется в мотопутешествие по Бразилии. Сначала путники останавливаются в Рио-де-Жанейро, затем летят в Манаус, откуда начинается их вояж по Амазонке. Пройдя 800 миль на мотоциклах, странники подъезжают к небольшой взлетно-посадочной полосе, откуда им предстоит отправиться вглубь джунглей…
Участники: Дэвид Бекхэм, Дэвид Гарднер, Энтони Мэндлер, Дерек Уайт, Бруклин Бекхэм, Виктория Бекхэм

Дата мировой премьеры: 9 июня 2014
Продолжительность: 01:30:32
Качество видео: SATRip
Перевод: Многоголосый закадровый, профессиональный
Видеокодек: Xvid
Битрейт видео: ~1800 kb/s, 25.00fps
Размер кадра: 704 x 400
Аудиокодек: MP3
Битрейт аудио: 128 kb/s, 2 ch

MediaInfo

Полное имя : David Beckham. Into the Unknown (2014) SATRip.avi
Формат : AVI
Формат/Информация : Audio Video Interleave
Размер файла : 1,23 Гбайт
Продолжительность : 1 ч. 30 м.
Общий поток : 1938 Кбит/сек
Программа кодирования : VirtualDubMod 1.5.10.3 | www.virtualdub-fr.org || (build 2550/release)
Библиотека кодирования : VirtualDubMod build 2550/release
Видео
Идентификатор : 0
Формат : MPEG-4 Visual
Профиль формата : Advanced Simple@L5
Параметр BVOP формата : 2
Параметр QPel формата : Нет
Параметр GMC формата : Без точки перехода
Параметр матрицы формата : Default (H.263)
Идентификатор кодека : XVID
Идентификатор кодека/Подсказка : XviD
Продолжительность : 1 ч. 30 м.
Битрейт : 1800 Кбит/сек
Ширина : 704 пикселя
Высота : 400 пикселей
Соотношение сторон : 16:9
Частота кадров : 25,000 кадров/сек
Цветовое пространство : YUV
Субдискретизация насыщенности : 4:2:0
Битовая глубина : 8 бит
Тип развёртки : Прогрессивная
Метод сжатия : С потерями
Бит/(Пиксели*Кадры) : 0.256
Размер потока : 1,14 Гбайт (93%)
Библиотека кодирования : XviD 1.2.1 (UTC 2008-12-04)
Аудио
Идентификатор : 1
Формат : MPEG Audio
Версия формата : Version 1
Профиль формата : Layer 3
Режим : Joint stereo
Расширение режима : MS Stereo
Идентификатор кодека : 55
Идентификатор кодека/Подсказка : MP3
Продолжительность : 1 ч. 30 м.
Вид битрейта : Постоянный
Битрейт : 128 Кбит/сек
Каналы : 2 канала
Частота : 48,0 КГц
Метод сжатия : С потерями
Размер потока : 82,9 Мбайт (7%)
Выравнивание : Соединение по промежуткам
Продолжительность промежутка : 40 мс. (1,00 видеокадр)
Время предзагрузки промежутка : 504 мс.
Библиотека кодирования : LAME3.99r
Настройки программы : -m j -V 4 -q 9 -lowpass 17 -b 128
Скриншоты:
Время раздачи: 24/7 (круглосуточно) До первых 5 скачавших.
[Профиль] [ЛС]
Кто просматривает тему:

Показать сообщения:    

Текущее время: Сегодня 20:12

Часовой пояс: GMT



Вы не можете начинать темы
Вы не можете отвечать на сообщения
Вы не можете редактировать свои сообщения
Вы не можете удалять свои сообщения
Вы не можете голосовать в опросах
Вы не можете прикреплять файлы к сообщениям
Вы не можете скачивать файлы