BBC: Древняя Греция. Величайший спектакль на Земле / Ancient Greece: The Greatest Show on Earth [серии 1-3 из 3] (Дэвид Уилсон / David Wilson) [2013 г., Документальный, познавательный, история, искусство, HDTVRip 720p]

 
Автор Сообщение

skorpionN ®

Пол:

Стаж: 1 год 8 месяцев

Сообщений: 591



Награды: 4 (Подробнее)

Mega Seeder 3 (Количество: 1) Mega Seeder 2 (Количество: 1) Top Releaser 2 (Количество: 1)
Торрент-статистика

Создавать темы 07-Окт-2016 16:58

[Цитировать]

BBC: Древняя Греция. Величайший спектакль на Земле / Ancient Greece: The Greatest Show on Earth [серии 1-3 из 3]
Год выпуска: 2013
Страна: Великобритания, BBC Scotland, Nostos Productions (in association with) Open University, The Tern Television
Жанр: Документальный, познавательный, история, искусство
Продолжительность: 3x~00:58:50
Перевод: Профессиональный (двухголосый)
Режиссер: Дэвид Уилсон / David Wilson
В ролях: Ведущий - д-р. Майкл Скотт / Dr Michael Scott
Участники: Rosie Wyles, Paul Cartledge, Oliver Taplin
Описание: Древняя Греция, Эллада - античная греческая цивилизация на юго-востоке Европы, наивысший расцвет которой пришёлся на V—IV вв. до н. э. - период, получивший в её истории название классического. В культуре Древней Греции лежат истоки современной человеческой цивилизации.
Эта программа о том, как древние пьесы изменили наш мир. Это история драматургов - Эсхила, Софокла и Эврипида, которые создали драматургию такими пьесами как "Троянки", "Антигона, "Царь Эдип" и "Ористея". Это история о том, как древние греки создали трагедию и комедию и том, как театр покорил Грецию и пошел дальше, становясь признаком цивилизации не только для греков, но и для всего мира тогда и сейчас.
Список серий:
01. Демократы / Democrats
Д-р Майкл Скотт едет в Афины, чтобы выяснить как драма и комедия и какое значение они имели в жизни древних греков. Он обнаруживает, что с самого начала это было нечто больше, нежели просто развлечение - это была реакция общества на реальные события. Драма и комедия были движущей силой в истории, и тесно связаны с афинской демократией. На самом деле история театра - это история Афин, культурного центра Греции, где разворачивался величайший спектакль на Земле.
02. Цари / Kings
В этой серии д-р Майкл Скотт пытается понять почему Афины утратили своё влияние, значение и даже демократию. Почему баланс власти в Греции сместился от демократии к авторитаризму? И почему театр, самое потрясающее открытие Афин, будет процветать не только во всей Греции но и за её пределами. Эта серия посвящена драматическому упадку Афин и одновременно выдающемуся триумфу и развитию театра.
03. Римляне / Romans
В этой серии д-р Майкл Скотт хочет узнать что произошло, когда пришли римляне и эпоха греческого доминирования и независимости пришла к концу. Почему они переняли греческое искусство, архитектуру и культуру, тем самым сохранив греческий театр.
Качество: HDTVRip 720p
Формат: MKV
Видео кодек: H.264
Аудио кодек: AC3
Видео: 1280x720 25.00 fps 4500 kbps
Аудио 1: (Rus) AC3 2ch, 48kHz, 192 kbps
Аудио 2: (En) AC3 2ch, 48kHz, 192 kbps
Cубтитры: En - отключаемые

Скриншоты


MediaInfo:

Format : Matroska
Format version : Version 4 / Version 2
File size : 1.97 GiB
Duration : 58 min
Overall bit rate mode : Variable
Overall bit rate : 4 806 kb/s
Encoded date : UTC 2016-10-07 15:39:42
Writing application : mkvmerge v7.3.0 ('Nouages') 64bit built on Oct 22 2014 18:53:34
Writing library : libebml v1.3.0 + libmatroska v1.4.1
Video
ID : 1
Format : AVC
Format/Info : Advanced Video Codec
Format profile : High@L4.1
Format settings, CABAC : Yes
Format settings, ReFrames : 3 frames
Codec ID : V_MPEG4/ISO/AVC
Duration : 58 min
Bit rate mode : Variable
Bit rate : 4 500 kb/s
Maximum bit rate : 8 000 kb/s
Width : 1 280 pixels
Height : 720 pixels
Display aspect ratio : 16:9
Frame rate mode : Constant
Frame rate : 25.000 FPS
Standard : NTSC
Color space : YUV
Chroma subsampling : 4:2:0
Bit depth : 8 bits
Scan type : Progressive
Bits/(Pixel*Frame) : 0.195
Stream size : 1.84 GiB (93%)
Writing library : x264 core 114
Encoding settings : cabac=1 / ref=3 / deblock=1:0:0 / analyse=0x3:0x113 / me=hex / subme=7 / psy=1 / psy_rd=1.00:0.00 / mixed_ref=1 / me_range=16 / chroma_me=1 / trellis=1 / 8x8dct=1 / cqm=2 / deadzone=21,11 / fast_pskip=1 / chroma_qp_offset=-4 / threads=6 / sliced_threads=0 / slices=1 / nr=0 / decimate=1 / interlaced=0 / constrained_intra=0 / bframes=3 / b_pyramid=0 / b_adapt=1 / b_bias=0 / direct=1 / weightb=1 / open_gop=0 / weightp=2 / keyint=250 / keyint_min=25 / scenecut=40 / intra_refresh=0 / rc_lookahead=40 / rc=2pass / mbtree=1 / bitrate=4500 / ratetol=1.0 / qcomp=0.60 / qpmin=5 / qpmax=69 / qpstep=4 / cplxblur=20.0 / qblur=0.5 / vbv_maxrate=8000 / vbv_bufsize=7995 / nal_hrd=vbr / ip_ratio=1.40 / aq=1:1.00
Default : Yes
Forced : No
Color range : Limited
Color primaries : BT.709
Transfer characteristics : BT.709
Matrix coefficients : BT.709
Audio #1
ID : 2
Format : AC-3
Format/Info : Audio Coding 3
Mode extension : CM (complete main)
Format settings, Endianness : Big
Codec ID : A_AC3
Duration : 58 min
Bit rate mode : Constant
Bit rate : 192 kb/s
Channel(s) : 2 channels
Channel positions : Front: L R
Sampling rate : 48.0 kHz
Frame rate : 31.250 FPS (1536 spf)
Compression mode : Lossy
Stream size : 80.8 MiB (4%)
Language : Russian
Default : Yes
Forced : No
Audio #2
ID : 3
Format : AC-3
Format/Info : Audio Coding 3
Mode extension : CM (complete main)
Format settings, Endianness : Big
Codec ID : A_AC3
Duration : 58 min
Bit rate mode : Constant
Bit rate : 128 kb/s
Channel(s) : 2 channels
Channel positions : Front: L R
Sampling rate : 48.0 kHz
Frame rate : 31.250 FPS (1536 spf)
Compression mode : Lossy
Stream size : 53.8 MiB (3%)
Language : English
Default : No
Forced : Yes
Text
ID : 4
Format : UTF-8
Codec ID : S_TEXT/UTF8
Codec ID/Info : UTF-8 Plain Text
Duration : 58 min
Bit rate : 109 b/s
Count of elements : 1033
Stream size : 47.0 KiB (0%)
Language : English
Default : No
Forced : No

Внимание:

Раздача ведётся путём добавления новых серий; при каждом добавлении создаётся новый торрент. Чтобы начать докачку новой серии, пользователям необходимо сделать следующее:
- Остановить скачивание.
- Удалить старый торрент у себя из клиента (старые серии удалять не надо).
- Скачать новый торрент и запустить его у себя в клиенте вместо старого, при этом указать клиенту путь в старую папку куда и должно происходить скачивание новых серий.
Добавлено
03. Римляне / Romans


Последний раз редактировалось: skorpionN (2016-10-15 21:00), всего редактировалось 6 раз(а)
[Профиль] [ЛС]

skorpionN ®

Пол:

Стаж: 1 год 8 месяцев

Сообщений: 591



Награды: 4 (Подробнее)

Top Releaser 2 (Количество: 1) Mega Seeder 3 (Количество: 1) Mega Seeder 2 (Количество: 1)
Торрент-статистика

Создавать темы 08-Окт-2016 18:25 (спустя 1 день 1 час)

[Цитировать]

Погутарили и хватит. Народ распугиваете, а тут детки малые могут зайти. Чего подумают то?
[Профиль] [ЛС]

Таисия

Стаж: 1 год 8 месяцев

Сообщений: 37



Награды: 1 (Подробнее)

Girls (Количество: 1)
Торрент-статистика

Создавать темы 12-Окт-2016 17:55 (спустя 3 дня)

[Цитировать]

СПАСИБО ....Купила диски ....теперь покачаю ....СПАСИБО .....
[Профиль] [ЛС]

skorpionN ®

Пол:

Стаж: 1 год 8 месяцев

Сообщений: 591



Награды: 4 (Подробнее)

Top Releaser 2 (Количество: 1) Mega Seeder 1 (Количество: 1) Mega Seeder 2 (Количество: 1)
Торрент-статистика

Создавать темы 15-Окт-2016 16:46 (спустя 2 дня 22 часа)

[Цитировать]

Сериал окончен
[Профиль] [ЛС]
Кто просматривает тему:

Показать сообщения:    

Текущее время: Сегодня 16:23

Часовой пояс: GMT



Вы не можете начинать темы
Вы не можете отвечать на сообщения
Вы не можете редактировать свои сообщения
Вы не можете удалять свои сообщения
Вы не можете голосовать в опросах
Вы не можете прикреплять файлы к сообщениям
Вы не можете скачивать файлы