BBC. Древние затерянные города. Исчезнувшая столица фараона / Lost Cities of the Ancients. The Vanished Capital of the Pharaoh (2006) HDTV [H.264/1080i-LQ]

 
Author Message

KottoSoft ®

Longevity: 5 years 3 months

Posts: 119



: None

Торрент-статистика

Post 14-Dec-2014 01:00

[Quote]

-BBC. Древние затерянные города. Исчезнувшая столица фараона (2006) / Lost Cities of the Ancients. The Vanished Capital of the Pharaoh HDTV [H.264/1080i-LQ]Режиссер / Телекомпания: Марк Эверест /
Страна: Австрия
Год выпуска: 2013
Жанр: Документальный, история, альтернативная история, псевдоистория
Описание: Это удивительная история о том как целый город исчез и был обнаружен тысячи лет спустя в другом месте. Из множества чудес Древнего Египта обним из самых замечательных была столица Рамзеса II - город Пер-Рамзес. Фараон потратил целое состояние на постройку своей столицы, но уже много веков назад и город и его сокровища исчезли с лица земли. Утраченный Пер-Рамзес оброс легендами и только 3 000 лет спустя его открытие позволило разгадать одну из наиболее удивительных загадок мировой археологии, потому что изначально Пер-Рамзес был обнаружен не на том месте, там, где вообще ничего не было во времена Рамзеса Великого...
Продолжительность: 00:51:54
Перевод: Одноголосый закадровый (профессиональный)
Субтитры: отсутствуют
Видеокодек: MPEG-4 AVC/H.264
Битрейт видео: ~5 673 Kбит/с
Размер кадра: 1920 x 1080
Качество видео: HDTV [1080i]
Аудио #1: AC-3, 48.0 KHz, 2 ch, 448 Kbps, CBR (Russian)
Аудио #2: AC-3, 48.0 KHz, 2 ch, 224 Kbps, CBR (Russian)
Аудио #3: AC-3, 48.0 KHz, 2 ch, 224 Kbps, CBR (English)

MediaInfo

Общее
Уникальный идентификатор : 237033586136197904217296016290834670523 (0xB25302153C2507E09A4395CB34B1E3BB)
Полное имя : D:\Релизы\BBC.The.Vanished.Capital.of.the.Pharaoh.2006.HDTV.1080i.mkv
Формат : Matroska
Версия формата : Version 2
Размер файла : 2,43 Гбайт
Продолжительность : 51 м.
Режим общего битрейта : Переменный
Общий поток : 6702 Кбит/сек
Название фильма : The Vanished Capital of the Pharaoh. 2006. HDTV (1080i) - Kinozal.TV-HD (by YlNiAn)
Дата кодирования : UTC 2011-02-03 15:02:40
Программа кодирования : mkvmerge v4.5.0 ('Speed of Light') сборка от Feb 1 2011 02:10:32
Библиотека кодирования : libebml v1.2.0 + libmatroska v1.1.0
Видео
Идентификатор : 1
Формат : AVC
Формат/Информация : Advanced Video Codec
Профиль формата : [url=mailto:Main@L4.0]Main@L4.0[/url]
Параметр CABAC формата : Да
Параметр ReFrames формата : 4 кадра
Идентификатор кодека : V_MPEG4/ISO/AVC
Продолжительность : 51 м.
Вид битрейта : Переменный
Битрейт : 5673 Кбит/сек
Максимальный битрейт : 40,0 Мбит/сек
Ширина : 1920 пикселей
Высота : 1080 пикселей
Соотношение сторон : 16:9
Режим частоты кадров : Постоянный
Частота кадров : 25,000 кадров/сек
Стандарт вещания : Component
Цветовое пространство : YUV
Субдискретизация насыщенности : 4:2:0
Битовая глубина : 8 бит
Тип развёртки : Чересстрочная
Порядок развёртки : Верхнее поле первое
Бит/(Пиксели*Кадры) : 0.109
Размер потока : 2,06 Гбайт (85%)
Заголовок : The Vanished Capital of the Pharaoh. 2006. HDTV (1080i)
Язык : English
Default : Да
Forced : Да
Основные цвета : BT.709
Характеристики трансфера : BT.709
Коэффициенты матрицы : BT.709
Аудио #1
Идентификатор : 2
Формат : AC-3
Формат/Информация : Audio Coding 3
Расширение режима : CM (complete main)
Параметр Endianness формата : Big
Идентификатор кодека : A_AC3
Продолжительность : 51 м.
Вид битрейта : Постоянный
Битрейт : 448 Кбит/сек
Каналы : 2 канала
Расположение каналов : Front: L R
Частота : 48,0 КГц
Битовая глубина : 16 бит
Метод сжатия : С потерями
Задержка видео : 12 мс.
Размер потока : 166 Мбайт (7%)
Заголовок : DUB (AC3 2.0 448 kbps)
Язык : Russian
Default : Да
Forced : Да
Аудио #2
Идентификатор : 3
Формат : AC-3
Формат/Информация : Audio Coding 3
Расширение режима : CM (complete main)
Параметр Endianness формата : Big
Идентификатор кодека : A_AC3
Продолжительность : 51 м.
Вид битрейта : Постоянный
Битрейт : 224 Кбит/сек
Каналы : 2 канала
Расположение каналов : Front: L R
Частота : 48,0 КГц
Битовая глубина : 16 бит
Метод сжатия : С потерями
Задержка видео : -120 мс.
Размер потока : 83,2 Мбайт (3%)
Заголовок : VO (R5) (AC3 2.0 224 kbps)
Язык : Russian
Default : Нет
Forced : Нет
Аудио #3
Идентификатор : 4
Формат : AC-3
Формат/Информация : Audio Coding 3
Расширение режима : CM (complete main)
Параметр Endianness формата : Big
Идентификатор кодека : A_AC3
Продолжительность : 51 м.
Вид битрейта : Постоянный
Битрейт : 224 Кбит/сек
Каналы : 2 канала
Расположение каналов : Front: L R
Частота : 48,0 КГц
Битовая глубина : 16 бит
Метод сжатия : С потерями
Задержка видео : -120 мс.
Размер потока : 83,2 Мбайт (3%)
Заголовок : AC3 2.0 224 kbps
Язык : English
Default : Нет
Forced : Нет
Скриншоты

Пожалуйста, не уходите с раздачи - помогите докачать другим. Если понравился релиз - жмите кнопку "Спасибо"!
[Profile] [PM]
Кто просматривает тему:

Display posts from previous:    

The time now is: Today 04:12

All times are GMT



You cannot post new topics in this forum
You cannot reply to topics in this forum
You cannot edit your posts in this forum
You cannot delete your posts in this forum
You cannot vote in polls in this forum
You cannot attach files in this forum
You cannot download files in this forum