BBC: Дикая природа Новой Зеландии / Wild New Zealand (New Zealand: Earth's Mythical Islands)[серии 1-3 из 3] (Mark Flowers) [2016 г., Документальный, фауна, флора, путешествия, HDTVRip-AVC 1080i]

 
Автор Сообщение

skorpionN ®

Пол:

Стаж: 2 года 7 месяцев

Сообщений: 833



Награды: 4 (Подробнее)

Top Releaser 2 (Количество: 1) Mega Seeder 1 (Количество: 1) Mega Seeder 3 (Количество: 1)
Торрент-статистика

Создавать темы 10-Фев-2017 20:49

[Цитировать]

BBC: Дикая природа Новой Зеландии / Wild New Zealand (New Zealand: Earth's Mythical Islands)[серии 1-3 из 3]
Год выпуска: 2016
Страна: Великобритания, BBC and NDR / Natur Film, Doclights
Жанр: Документальный, фауна, флора, путешествия
Продолжительность: 3x~00:48:58
Перевод: Профессиональный (одноголосый), переведено и озвучено на студии "SDI Media", по заказу ТПО Red Media
Режиссер: Mark Flowers
Описание: Далеко-далеко в Тихом океане лежит страна, отрезанная от основного мира еще со времен динозавров. Добро пожаловать в сказочные пейзажи! Добро пожаловать в то место на планете Земля, где время остановилось... Добро пожаловать в затерянный мир Новой Зеландии!
Список серий:
01. Брошенные на произвол судьбы / Cast Adrift
02. Дикие крайности / Wild Extremes
03. Новые поселенцы / New Arrivals

Качество: HDTVRip-AVC
Формат: MPEG-TS
Видео кодек: MPEG-4
Аудио кодек: MP3
Видео: 1920х1080 25.00 fps 7940 kbps
Аудио: MP3 2ch, 48kHz, 192 kbps

Скриншоты


MediaInfo:

Format : MPEG-TS
File size : 2.93 GiB
Duration : 48 min 58 s
Overall bit rate mode : Variable
Overall bit rate : 8 559 kb/s
Maximum Overall bit rate : 35.5 Mb/s
Video
ID : 4113 (0x1011)
Menu ID : 1 (0x1)
Format : AVC
Format/Info : Advanced Video Codec
Format profile : High@L4
Format settings, CABAC : Yes
Format settings, ReFrames : 4 frames
Format settings, GOP : M=4, N=28
Codec ID : 27
Duration : 48 min 58 s
Bit rate mode : Variable
Bit rate : 7 942 kb/s
Maximum bit rate : 40.0 Mb/s
Width : 1 920 pixels
Height : 1 080 pixels
Display aspect ratio : 16:9
Frame rate : 25.000 FPS
Standard : Component
Color space : YUV
Chroma subsampling : 4:2:0
Bit depth : 8 bits
Scan type : Interlaced
Scan type, store method : Separated fields
Scan order : Top Field First
Bits/(Pixel*Frame) : 0.153
Stream size : 2.72 GiB (93%)
Color range : Limited
Color primaries : BT.709
Transfer characteristics : BT.709
Matrix coefficients : BT.709
Audio
ID : 4352 (0x1100)
Menu ID : 1 (0x1)
Format : MPEG Audio
Format version : Version 1
Format profile : Layer 2
Codec ID : 4
Duration : 48 min 57 s
Bit rate mode : Constant
Bit rate : 192 kb/s
Channel(s) : 2 channels
Sampling rate : 48.0 kHz
Compression mode : Lossy
Delay relative to video : 280 ms
Stream size : 67.2 MiB (2%)
Language : Russian

Внимание! Раздача ведётся путём добавления новых серий

При каждом добавлении создаётся новый торрент.
Чтобы начать докачку новой серии, пользователям необходимо сделать следующее:
1. Остановить скачивание.
2. Удалить старый торрент у себя из клиента (старые серии удалять не надо).
3. Скачать новый торрент и запустить его у себя в клиенте вместо старого, при этом указать клиенту путь в старую папку куда и должно происходить скачивание новых серий.
Ваш клиент при этом должен произвести хеширование (проверку) старой папки (если не производит сам - помогите ему сделать это), и будет докачивать только те серии которых у вас ещё нет. Старые серии при этом не удаляются, а продолжают раздаваться!
Eсли вы уже удалили старые серии, то предотвратить повторную закачку старых серий можно, отжав галочку в соответствующих местах при запуске нового торрента. По возможности, желательно не удалять старые серии как можно дольше чтобы релизёр не столько продолжал раздавать старые серии, а смог сконцентрироваться на новых.
Добавлено:
03. Новые поселенцы / New Arrivals
[Профиль] [ЛС]
Кто просматривает тему:

Показать сообщения:    

Текущее время: Сегодня 02:19

Часовой пояс: GMT



Вы не можете начинать темы
Вы не можете отвечать на сообщения
Вы не можете редактировать свои сообщения
Вы не можете удалять свои сообщения
Вы не можете голосовать в опросах
Вы не можете прикреплять файлы к сообщениям
Вы не можете скачивать файлы