BBC: Дикая природа Новой Зеландии / Wild New Zealand (New Zealand: Earth's Mythical Islands) [серии 1-3 из 3] (Mark Flowers) [2016 г., Документальный, фауна, флора, путешествия, HDTVRip-AVC 720p]

 
Автор Сообщение

skorpionN ®

Пол:

Стаж: 3 года 7 месяцев

Сообщений: 944



Награды: 4 (Подробнее)

Top Releaser 2 (Количество: 1) Mega Seeder 1 (Количество: 1) Mega Seeder 2 (Количество: 1)
Торрент-статистика

Создавать темы 08-Фев-2017 10:22

[Цитировать]

BBC: Дикая природа Новой Зеландии / Wild New Zealand (New Zealand: Earth's Mythical Islands)[серии 1-3 из 3]
Год выпуска: 2016
Страна: Великобритания, BBC and NDR / Natur Film, Doclights
Жанр: Документальный, фауна, флора, путешествия
Продолжительность: 3x~00:48:58
Перевод: Профессиональный (одноголосый), переведено и озвучено на студии "SDI Media", по заказу ТПО Red Media
Режиссер: Mark Flowers
Описание: Далеко-далеко в Тихом океане лежит страна, отрезанная от основного мира еще со времен динозавров. Добро пожаловать в сказочные пейзажи! Добро пожаловать в то место на планете Земля, где время остановилось... Добро пожаловать в затерянный мир Новой Зеландии!
Список серий:
01. Брошенные на произвол судьбы / Cast Adrift
02. Дикие крайности / Wild Extremes
03. Новые поселенцы / New Arrivals

Качество: HDTVRip-AVC 720p
Формат: MKV
Видео кодек: H.264
Аудио кодек: AC3
Видео: 1280x720 25.00 fps 5000 kbps
Аудио: AC3 2ch, 48kHz, 192 kbps

Скриншоты


MediaInfo:

Format : Matroska
Format version : Version 4 / Version 2
File size : 1.77 GiB
Duration : 48 min 57 s
Overall bit rate mode : Variable
Overall bit rate : 5 180 kb/s
Encoded date : UTC 2017-02-08 09:48:07
Writing application : mkvmerge v7.3.0 ('Nouages') 64bit built on Oct 22 2014 18:53:34
Writing library : libebml v1.3.0 + libmatroska v1.4.1
Video
ID : 1
Format : AVC
Format/Info : Advanced Video Codec
Format profile : High@L4
Format settings, CABAC : Yes
Format settings, ReFrames : 3 frames
Codec ID : V_MPEG4/ISO/AVC
Duration : 48 min 57 s
Bit rate mode : Variable
Bit rate : 5 000 kb/s
Maximum bit rate : 8 000 kb/s
Width : 1 280 pixels
Height : 720 pixels
Display aspect ratio : 16:9
Frame rate mode : Constant
Frame rate : 25.000 FPS
Standard : NTSC
Color space : YUV
Chroma subsampling : 4:2:0
Bit depth : 8 bits
Scan type : Progressive
Bits/(Pixel*Frame) : 0.217
Stream size : 1.71 GiB (96%)
Writing library : x264 core 114
Encoding settings : cabac=1 / ref=3 / deblock=1:0:0 / analyse=0x3:0x113 / me=hex / subme=7 / psy=1 / psy_rd=1.00:0.00 / mixed_ref=1 / me_range=16 / chroma_me=1 / trellis=1 / 8x8dct=1 / cqm=2 / deadzone=21,11 / fast_pskip=1 / chroma_qp_offset=-4 / threads=6 / sliced_threads=0 / slices=1 / nr=0 / decimate=1 / interlaced=0 / constrained_intra=0 / bframes=3 / b_pyramid=0 / b_adapt=1 / b_bias=0 / direct=1 / weightb=1 / open_gop=0 / weightp=2 / keyint=250 / keyint_min=25 / scenecut=40 / intra_refresh=0 / rc_lookahead=40 / rc=2pass / mbtree=1 / bitrate=5000 / ratetol=1.0 / qcomp=0.60 / qpmin=5 / qpmax=69 / qpstep=4 / cplxblur=20.0 / qblur=0.5 / vbv_maxrate=8000 / vbv_bufsize=7995 / nal_hrd=vbr / ip_ratio=1.40 / aq=1:1.00
Default : Yes
Forced : No
Color range : Limited
Color primaries : BT.709
Transfer characteristics : BT.709
Matrix coefficients : BT.709
Audio
ID : 2
Format : AC-3
Format/Info : Audio Coding 3
Mode extension : CM (complete main)
Format settings, Endianness : Big
Codec ID : A_AC3
Duration : 48 min 57 s
Bit rate mode : Constant
Bit rate : 192 kb/s
Channel(s) : 2 channels
Channel positions : Front: L R
Sampling rate : 48.0 kHz
Frame rate : 31.250 FPS (1536 spf)
Compression mode : Lossy
Stream size : 67.2 MiB (4%)
Default : Yes
Forced : No

Внимание! Раздача ведётся путём добавления новых серий

При каждом добавлении создаётся новый торрент.
Чтобы начать докачку новой серии, пользователям необходимо сделать следующее:
1. Остановить скачивание.
2. Удалить старый торрент у себя из клиента (старые серии удалять не надо).
3. Скачать новый торрент и запустить его у себя в клиенте вместо старого, при этом указать клиенту путь в старую папку куда и должно происходить скачивание новых серий.
Ваш клиент при этом должен произвести хеширование (проверку) старой папки (если не производит сам - помогите ему сделать это), и будет докачивать только те серии которых у вас ещё нет. Старые серии при этом не удаляются, а продолжают раздаваться!
Eсли вы уже удалили старые серии, то предотвратить повторную закачку старых серий можно, отжав галочку в соответствующих местах при запуске нового торрента. По возможности, желательно не удалять старые серии как можно дольше чтобы релизёр не столько продолжал раздавать старые серии, а смог сконцентрироваться на новых.
Добавлено:
03. Новые поселенцы / New Arrivals
[Профиль] [ЛС]
Кто просматривает тему:

Показать сообщения:    

Текущее время: Сегодня 07:29

Часовой пояс: GMT



Вы не можете начинать темы
Вы не можете отвечать на сообщения
Вы не можете редактировать свои сообщения
Вы не можете удалять свои сообщения
Вы не можете голосовать в опросах
Вы не можете прикреплять файлы к сообщениям
Вы не можете скачивать файлы