BBC: Дикая Патагония / Wild Patagonia [серии 1-3 из 3] (Tuppence Stone, Nick Smith-Baker) [2015 г., Документальный, фауна, флора, путешествия, HDTVRip-AVC 1080i]

 
Автор Сообщение

skorpionN ®

Пол:

Стаж: 2 года 7 месяцев

Сообщений: 833



Награды: 4 (Подробнее)

Top Releaser 2 (Количество: 1) Mega Seeder 2 (Количество: 1) Mega Seeder 1 (Количество: 1)
Торрент-статистика

Создавать темы 03-Мар-2017 16:36

[Цитировать]

BBC: Дикая Патагония / Wild Patagonia [серии 1-3 из 3]
Год выпуска: 2015
Страна: Великобритания, BBC and Animal Planet Co-Production
Жанр: Документальный, фауна, флора, путешествия
Продолжительность: 2x~00:51:07+00:49:36+00:50:52
Перевод: Профессиональный (одноголосый), переведено и озвучено на студии "SDI Media", по заказу ТПО Red Media
Режиссер: Tuppence Stone, Nick Smith-Baker
Описание: В дальнем уголке Земли прячется дикая природа Южной Америки. Невероятные ландшафты приютили необычных и удивительных животных. От скалистых вершин Анд, через выжженную пустынную степь, до берегов, на которые обрушивают волны самые суровые моря планеты. Жизнь здесь требует решимости и непреклонности. Для кого тут открываются невероятные возможности но для других это битва за жизнь. Дух первооткрывателей объединяет всех, кто попал под очарование Патагонии. Все это - дикая Патагония.
Список серий:
01. Лед и пламя / Fire and Ice
02. Жара и пыль / Heat and Dust
03. Жизнь на грани / Life on the Edge

Качество: HDTVRip-AVC
Формат: MPEG-TS
Видео кодек: MPEG-4
Аудио кодек: MP2
Видео: 1920х1080 25.00 fps 7940 kbps
Аудио: MP2 2ch, 48kHz, 192 kbps

MediaInfo:

Format : MPEG-TS
File size : 2.75 GiB
Duration : 49 min 36 s
Overall bit rate mode : Variable
Overall bit rate : 7 939 kb/s
Maximum Overall bit rate : 35.5 Mb/s
Video
ID : 4113 (0x1011)
Menu ID : 1 (0x1)
Format : AVC
Format/Info : Advanced Video Codec
Format profile : High@L4
Format settings, CABAC : Yes
Format settings, ReFrames : 4 frames
Codec ID : 27
Duration : 49 min 35 s
Bit rate mode : Variable
Bit rate : 7 353 kb/s
Maximum bit rate : 40.0 Mb/s
Width : 1 920 pixels
Height : 1 080 pixels
Display aspect ratio : 16:9
Frame rate : 25.000 FPS
Standard : Component
Color space : YUV
Chroma subsampling : 4:2:0
Bit depth : 8 bits
Scan type : Interlaced
Scan type, store method : Separated fields
Scan order : Top Field First
Bits/(Pixel*Frame) : 0.142
Stream size : 2.55 GiB (93%)
Color range : Limited
Color primaries : BT.709
Transfer characteristics : BT.709
Matrix coefficients : BT.709
Audio
ID : 4352 (0x1100)
Menu ID : 1 (0x1)
Format : MPEG Audio
Format version : Version 1
Format profile : Layer 2
Codec ID : 4
Duration : 49 min 35 s
Bit rate mode : Constant
Bit rate : 192 kb/s
Channel(s) : 2 channels
Sampling rate : 48.0 kHz
Compression mode : Lossy
Delay relative to video : -1 s 199 ms
Stream size : 68.1 MiB (2%)
Language : Russian

Внимание! Раздача ведётся путём добавления новых серий

При каждом добавлении создаётся новый торрент.
Чтобы начать докачку новой серии, пользователям необходимо сделать следующее:
1. Остановить скачивание.
2. Удалить старый торрент у себя из клиента (старые серии удалять не надо).
3. Скачать новый торрент и запустить его у себя в клиенте вместо старого, при этом указать клиенту путь в старую папку куда и должно происходить скачивание новых серий.
Ваш клиент при этом должен произвести хеширование (проверку) старой папки (если не производит сам - помогите ему сделать это), и будет докачивать только те серии которых у вас ещё нет. Старые серии при этом не удаляются, а продолжают раздаваться!
Eсли вы уже удалили старые серии, то предотвратить повторную закачку старых серий можно, отжав галочку в соответствующих местах при запуске нового торрента. По возможности, желательно не удалять старые серии как можно дольше чтобы релизёр не столько продолжал раздавать старые серии, а смог сконцентрироваться на новых.
Добавлено:
03. Жизнь на грани / Life on the Edge


Последний раз редактировалось: skorpionN (2017-03-04 11:18), всего редактировалось 1 раз
[Профиль] [ЛС]

skorpionN ®

Пол:

Стаж: 2 года 7 месяцев

Сообщений: 833



Награды: 4 (Подробнее)

Top Releaser 2 (Количество: 1) Mega Seeder 1 (Количество: 1) Mega Seeder 3 (Количество: 1)
Торрент-статистика

Создавать темы 04-Мар-2017 08:15 (спустя 15 часов)

[Цитировать]

Постараюсь сегодня добавить последнюю серию
[Профиль] [ЛС]

boba88

Стаж: 8 месяцев 12 дней

Сообщений: 19



Награды: Нет

Торрент-статистика

Создавать темы 04-Мар-2017 08:20 (спустя 5 минут)

[Цитировать]

Да уж постарайся ab
[Профиль] [ЛС]

skorpionN ®

Пол:

Стаж: 2 года 7 месяцев

Сообщений: 833



Награды: 4 (Подробнее)

Mega Seeder 3 (Количество: 1) Mega Seeder 2 (Количество: 1) Top Releaser 2 (Количество: 1)
Торрент-статистика

Создавать темы 04-Мар-2017 09:31 (спустя 1 час 11 минут)

[Цитировать]

Все в наших руках cb
[Профиль] [ЛС]
Кто просматривает тему:

Показать сообщения:    

Текущее время: Сегодня 21:15

Часовой пояс: GMT



Вы не можете начинать темы
Вы не можете отвечать на сообщения
Вы не можете редактировать свои сообщения
Вы не можете удалять свои сообщения
Вы не можете голосовать в опросах
Вы не можете прикреплять файлы к сообщениям
Вы не можете скачивать файлы