BBC: Девять месяцев, которые создают нас / The Nine Months That Made You (Countdown to Life: The Extraordinary Making of You) [серии 1-3 из 3] (Naomi Austin, Helen Sage, Martin Johnson) [2015 г., Документальный, научно-популярный, SATRip]

 
Автор Сообщение

skorpionN ®

Пол:

Стаж: 1 год 8 месяцев

Сообщений: 592



Награды: 4 (Подробнее)

Mega Seeder 2 (Количество: 1) Top Releaser 2 (Количество: 1) Mega Seeder 1 (Количество: 1)
Торрент-статистика

Создавать темы 27-Мар-2016 14:57

[Цитировать]

BBC: Девять месяцев, которые создают нас / The Nine Months That Made You (Countdown to Life: The Extraordinary Making of You) [серии 1-3 из 3]
Год выпуска: 2015
Страна: Великобритания, Open University Partnership, BBC Science Production London
Жанр: Документальный, научно-популярный
Продолжительность: 3x~00:51:30
Перевод: Профессиональный (одноголосый), Видеофильм ТВ
Режиссер: Naomi Austin, Helen Sage, Martin Johnson
Описание: Как появляется человек? 100 триллионов клеток. 280 дней. Одна человеческая жизнь. С момента зачатия до рождения. Это гонка со временем, в которой каждое мгновение имеет значение.
Список серий:
01. Первые восемь недель / The First Eight Weeks
В первом эпизоде мы рассмотрим наши первые, после зачатия, восемь недель жизни - самое опасное время в утробе матери. Это время, когда все лежит на чаше весов. Когда минута за минутой, час за часом происходит ряд решающих событий, которые формируют каждого из нас. Время - когда определяется расположение наших органов, когда наше сердце делает свой первый удар, и когда может быть определена длина нашей жизни. Это время, когда случится может что угодно и любые необратимые последствия могут оказать влияние на всю нашу последующую жизнь.
02. Вопреки всему / Against The Odds
Во втором эпизоде мы узнаем историю наших средних недель в утробе матери - когда мы становимся личностью. Через 8 недель мы все переходим на новый этап развития на котором происходит то, что делает каждого из нас уникальным. Мы узнаем когда формируется лицо, капилярный узор пальцев и цвет кожи. И наше отношение к полу и сексу тоже может быть определено задолго до рождения.
03. Последнее усилие / The Final Push
В заключительной части этой эпической серии мы рассмотрим последние месяцы жизни в утробе матери, когда хрящ твердеет, образуя скелет, когда готовы открыться глаза, включается зрение, лёгкие готовятся сделать первый вдох и нам предстоит встретиться с окружающим миром и начать самостоятельную жизнь.
Качество: SATRip
Формат: AVI
Видео кодек: XviD
Аудио кодек: AC3
Видео: 720x400 25fps ~1800 Kbps
Аудио: AC3 2ch, 48kHz, 192 kbps

Скриншоты


MediaInfo:

Format : AVI
Format/Info : Audio Video Interleave
File size : 740 MiB
Duration : 51mn 49s
Overall bit rate : 1 996 Kbps
Writing application : TMPGEnc Video Mastering Works 5 Version. 5.0.6.38
Writing library : TMPGEnc Video Mastering Works 5 Version. 5.0.6.38
Video
ID : 0
Format : MPEG-4 Visual
Format profile : Advanced Simple@L5
Format settings, BVOP : 2
Format settings, QPel : No
Format settings, GMC : No warppoints
Format settings, Matrix : Default (H.263)
Muxing mode : Packed bitstream
Codec ID : XVID
Codec ID/Hint : XviD
Duration : 51mn 49s
Bit rate : 1 797 Kbps
Width : 720 pixels
Height : 400 pixels
Display aspect ratio : 16:9
Frame rate : 25.000 fps
Color space : YUV
Chroma subsampling : 4:2:0
Bit depth : 8 bits
Scan type : Progressive
Compression mode : Lossy
Bits/(Pixel*Frame) : 0.250
Stream size : 666 MiB (90%)
Writing library : XviD 73
Audio
ID : 1
Format : AC-3
Format/Info : Audio Coding 3
Mode extension : CM (complete main)
Format settings, Endianness : Big
Codec ID : 2000
Duration : 51mn 48s
Bit rate mode : Constant
Bit rate : 192 Kbps
Channel(s) : 2 channels
Channel positions : Front: L R
Sampling rate : 48.0 KHz
Bit depth : 16 bits
Compression mode : Lossy
Stream size : 71.2 MiB (10%)
Alignment : Aligned on interleaves
Interleave, duration : 240 ms (6.00 video frames)
Interleave, preload duration : 224 ms
[Профиль] [ЛС]

Таисия

Стаж: 1 год 8 месяцев

Сообщений: 37



Награды: 1 (Подробнее)

Girls (Количество: 1)
Торрент-статистика

Создавать темы 28-Мар-2016 20:49 (спустя 1 день 5 часов)

[Цитировать]

СПАСИБО огромное ...Очень интересно ....Качаю без разговоров.....СПАСИБО .... ax ax ax
[Профиль] [ЛС]
Кто просматривает тему:

Показать сообщения:    

Текущее время: Сегодня 20:46

Часовой пояс: GMT



Вы не можете начинать темы
Вы не можете отвечать на сообщения
Вы не можете редактировать свои сообщения
Вы не можете удалять свои сообщения
Вы не можете голосовать в опросах
Вы не можете прикреплять файлы к сообщениям
Вы не можете скачивать файлы