BBC: Гении современного мира / Genius Of The Modern World [серии 1-3 из 3] (Rob Gowling) [2016 г., Документальный, история, исследования, HDTVRip-AVC 720p]

 
Автор Сообщение

skorpionN ®

Пол:

Стаж: 2 года 8 месяцев

Сообщений: 858



Награды: 4 (Подробнее)

Mega Seeder 3 (Количество: 1) Mega Seeder 1 (Количество: 1) Mega Seeder 2 (Количество: 1)
Торрент-статистика

Создавать темы 01-Май-2017 17:41

[Цитировать]

BBC: Гении современного мира / Genius Of The Modern World [серии 1-3 из 3]
Год выпуска: 2016
Страна: Великобритания, ВВС Open University Partnership, Religion & Ethics Production Salford
Жанр: Документальный, история, исследования
Продолжительность: 3x~00:58:38
Перевод: Профессиональный (одноголосый), переведено и озвучено на студии "SDI Media", перевод Натальи Сергеевой, текст читает Ольга Сирина
Режиссер: Rob Gowling, Anna Cox
В ролях: Историк Бетани Хьюз
Качество: HDTVRip-AVC 720p
Формат: MKV
Видео кодек: H.264
Аудио кодек: AC3
Видео: 1280x720 25.00 fps 4000 kbps
Аудио 1: (Rus) AC3 2ch, 48kHz, 192 kbps
Аудио 2: (En) AC3 2ch, 48kHz, 192 kbps
Субтитры: английские, отключаемые
Описание: 19 век - эпоха бурных потрясений, время перемен в промышленности, науке и политике. Но самое главное - в мировоззрении. Это была пора смелых и рискованных идей, ознаменовавших возникновение нового мира. У его истоков стояли великие умы: Карл Маркс, Фридрих Ницше и Зигмунд Фрейд. Они жили в эпоху, когда рушились старые реалии, низвергались существующие режимы, а наука оспаривала авторитет церкви. Эти люди пытались понять что делает человека ЧЕЛОВЕКОМ в этом неспокойном мире. Эмигранты, затворники, враги государства - все они открыто бросили вызов существующим обстоятельствам. Мало что оставалось запретным. Эти люди вознамерились понять какие силы контролируют нашу жизнь и сделать это силой разума. Поиски привели их к крайностям, нищете и безумию. Но их проницательность и неоднозначное видение мира и сегодня влияет на наше осмысление жизни. Историк Бетани Хьюз исследует ход мыслей величайших философов нашего времени.
Список серий:

01. Маркс / Marx

Бетани изучает идеи Карла Маркса. Маркс родился в богатой прусской семье, но стал радикалом, который постоянно занимался политической агитацией и писал пылкие книги. Опираясь на мнение экспертов и новые доказательства, Беттани раскрывает человека из плоти и крови и его новаторские идеи.

02. Ницше / Nietzsche

Бетани исследует взгляды Ницше, чьи работы и нелюбовь к системе подвергались самым опасным манипуляциям в истории философии. Беттани Хьюз отправляется на поиски верований человека, чья работа относится к самым разрушительно манипулируемым и неверно истолкованным в философской истории.

03. Фрейд / Freud

Историк Бетани Хьюз идет по стопам трех величайших мыслителей, идеи которых формировали современный мир. На этот раз ее путь лежит в Вену, где жил Зигмунд Фрейд - отец психоанализа.

Скриншоты


MediaInfo:

Format : Matroska
Format version : Version 4 / Version 2
File size : 1.79 GiB
Duration : 58 min 37 s
Overall bit rate mode : Variable
Overall bit rate : 4 379 kb/s
Encoded date : UTC 2017-05-01 17:23:01
Writing application : mkvmerge v6.9.1 ('Blue Panther') 64bit built on Apr 18 2014 18:23:38
Writing library : libebml v1.3.0 + libmatroska v1.4.1
Video
ID : 1
Format : AVC
Format/Info : Advanced Video Codec
Format profile : High@L4.1
Format settings, CABAC : Yes
Format settings, ReFrames : 3 frames
Codec ID : V_MPEG4/ISO/AVC
Duration : 58 min 37 s
Bit rate mode : Variable
Bit rate : 4 000 kb/s
Maximum bit rate : 8 000 kb/s
Width : 1 280 pixels
Height : 720 pixels
Display aspect ratio : 16:9
Frame rate mode : Constant
Frame rate : 25.000 FPS
Standard : NTSC
Color space : YUV
Chroma subsampling : 4:2:0
Bit depth : 8 bits
Scan type : Progressive
Bits/(Pixel*Frame) : 0.174
Stream size : 1.60 GiB (89%)
Writing library : x264 core 114
Encoding settings : cabac=1 / ref=3 / deblock=1:0:0 / analyse=0x3:0x113 / me=hex / subme=7 / psy=1 / psy_rd=1.00:0.00 / mixed_ref=1 / me_range=16 / chroma_me=1 / trellis=1 / 8x8dct=1 / cqm=2 / deadzone=21,11 / fast_pskip=1 / chroma_qp_offset=-4 / threads=6 / sliced_threads=0 / slices=1 / nr=0 / decimate=1 / interlaced=0 / constrained_intra=0 / bframes=3 / b_pyramid=0 / b_adapt=1 / b_bias=0 / direct=1 / weightb=1 / open_gop=0 / weightp=2 / keyint=250 / keyint_min=25 / scenecut=40 / intra_refresh=0 / rc_lookahead=40 / rc=2pass / mbtree=1 / bitrate=4000 / ratetol=1.0 / qcomp=0.60 / qpmin=5 / qpmax=69 / qpstep=4 / cplxblur=20.0 / qblur=0.5 / vbv_maxrate=8000 / vbv_bufsize=7995 / nal_hrd=vbr / ip_ratio=1.40 / aq=1:1.00
Default : Yes
Forced : No
Color range : Limited
Color primaries : BT.709
Transfer characteristics : BT.709
Matrix coefficients : BT.709
Audio #1
ID : 2
Format : AC-3
Format/Info : Audio Coding 3
Mode extension : CM (complete main)
Format settings, Endianness : Big
Codec ID : A_AC3
Duration : 58 min 37 s
Bit rate mode : Constant
Bit rate : 192 kb/s
Channel(s) : 2 channels
Channel positions : Front: L R
Sampling rate : 48.0 kHz
Frame rate : 31.250 FPS (1536 spf)
Compression mode : Lossy
Stream size : 80.5 MiB (4%)
Language : Russian
Default : Yes
Forced : No
Audio #2
ID : 3
Format : AC-3
Format/Info : Audio Coding 3
Mode extension : CM (complete main)
Format settings, Endianness : Big
Codec ID : A_AC3
Duration : 58 min 37 s
Bit rate mode : Constant
Bit rate : 192 kb/s
Channel(s) : 2 channels
Channel positions : Front: L R
Sampling rate : 48.0 kHz
Frame rate : 31.250 FPS (1536 spf)
Compression mode : Lossy
Stream size : 80.5 MiB (4%)
Language : English
Default : No
Forced : Yes
Text
ID : 4
Format : UTF-8
Codec ID : S_TEXT/UTF8
Codec ID/Info : UTF-8 Plain Text
Language : English
Default : No
Forced : No

Внимание:

Раздача ведётся путём добавления новых серий; при каждом добавлении создаётся новый торрент. Чтобы начать докачку новой серии, пользователям необходимо сделать следующее:
- Остановить скачивание.
- Удалить старый торрент у себя из клиента (старые серии удалять не надо).
- Скачать новый торрент и запустить его у себя в клиенте вместо старого, при этом указать клиенту путь в старую папку куда и должно происходить скачивание новых серий.
Добавлено
03. Фрейд / Freud
BBC: Гении древнего мира / Genius Ancient World [серии 1-3 из 3] HDTVRip-AVC 720p
BBC: Гении современного мира / Genius Of The Modern World [серии 1-3 из 3] HDTVRip-AVC 720p
[Профиль] [ЛС]
Кто просматривает тему:

Показать сообщения:    

Текущее время: Сегодня 09:18

Часовой пояс: GMT



Вы не можете начинать темы
Вы не можете отвечать на сообщения
Вы не можете редактировать свои сообщения
Вы не можете удалять свои сообщения
Вы не можете голосовать в опросах
Вы не можете прикреплять файлы к сообщениям
Вы не можете скачивать файлы