BBC: В краю муссонов / Wonders of the Monsoon [серии 1-5 из 5] (Кэтрин Жеффс / Kathryn Jeffs) [2014, Великобритания, BBC, Документальный, флора, фауна, BDRip 720p] VO (Ю. Онищенко) + Original Eng + Sub (Rus, Eng)

 
Автор Сообщение

TorrentFilm ®

Пол:

Стаж: 2 года

Сообщений: 7741



Награды: Нет

Торрент-статистика

Создавать темы 03-Июн-2015 00:04

[Цитировать]

BBC: В краю муссонов / Wonders of the Monsoon [серии 1-5 из 5]
Год выпуска: 2014
Страна: Великобритания
Студия: BBC, Natural History Production
Жанр: Документальный, флора, фауна
Продолжительность: 5 х ~ 00:59:00
Перевод: Одноголосый (закадровый) - Ю. Онищенко
Русские субтитры: есть
Режиссер: Кэтрин Жеффс / Kathryn Jeffs
Описание: Как экзотику и очарование дикой природы, так и самобытность пёстрых культур Южной Азии породило одно из самых грандиозных явлений нашей планеты - безудержная стихия муссонов. Жизненные циклы животных и человека вращаются вокруг этого неистового, природного феномена, который даёт жизнь и её же отнимает. От Северных берегов Австралии к высочайшим пикам Гималаев, от продуваемых пустынь Северной Индии к влажным и тропическим лесам острова Борнео. Этот сериал станет для зрителя волнующим открытием, паломничеством в край, в котором господствуют муссоны.
Качество: BDRip (720p)
Формат: MKV
Видео: MPEG-4 AVC, 1280x720, ~ 8000 kbps, 25.000 fps, 0.354 bit/pixel
Аудио 1: Russian: AC3 2.0, 48 kHz, 448 kbps
Аудио 2: English: AC3 2.0, 48 kHz, 448 kbps

Список эпизодов:
1.В ожидании дождя / Waiting for the Rains
2.Потоп / Deluge
3.Засуха / The Drought
4.Экстравагантные изгои / Strange castaways
5.Народы муссонов / People of the monsoon

MediaInfo

x264 [info]: frame I:768 Avg QP:14.54 size:206610
x264 [info]: frame P:21914 Avg QP:17.45 size: 79189
x264 [info]: frame B:66254 Avg QP:20.28 size: 26050
---------------------------------------------------------------------------
General
Unique ID : 219553663033446271905909121540306808868 (0xA52C7F55D7AB1D8D8CDF2198F588B024)
Complete name : J:\Wonders.of.the.Monsoon.2014.x264.BDRip.(720p)\01.Waiting for the Rains.mkv
Format : Matroska
Format version : Version 2
File size : 3.74 GiB
Duration : 59mn 17s
Overall bit rate : 9 039 Kbps
Movie name : Wonders of the Monsoon / 01. Waiting for the Rains / 2014 / Rip by PowerRock / ExKinoRay
Encoded date : UTC 2015-06-02 08:44:29
Writing application : mkvmerge v7.8.0 ('River Man') 32bit built on Apr 3 2015 12:11:22
Writing library : libebml v1.3.1 + libmatroska v1.4.2
Attachements : cover.jpg
Video
ID : 1
Format : AVC
Format/Info : Advanced Video Codec
Format profile : High@L4.1
Format settings, CABAC : Yes
Format settings, ReFrames : 9 frames
Codec ID : V_MPEG4/ISO/AVC
Duration : 59mn 17s
Bit rate : 8 153 Kbps
Width : 1 280 pixels
Height : 720 pixels
Display aspect ratio : 16:9
Frame rate mode : Constant
Frame rate : 25.000 fps
Color space : YUV
Chroma subsampling : 4:2:0
Bit depth : 8 bits
Scan type : Progressive
Bits/(Pixel*Frame) : 0.354
Stream size : 3.30 GiB (88%)
Title : Wonders of the Monsoon / 01. Waiting for the Rains / 2014
Writing library : x264 core 146 r2538 121396c
Encoding settings : cabac=1 / ref=9 / deblock=1:-3:-3 / analyse=0x3:0x113 / me=umh / subme=10 / psy=1 / psy_rd=1.00:0.00 / mixed_ref=1 / me_range=32 / chroma_me=1 / trellis=2 / 8x8dct=1 / cqm=0 / deadzone=21,11 / fast_pskip=0 / chroma_qp_offset=-2 / threads=6 / lookahead_threads=1 / sliced_threads=0 / nr=0 / decimate=1 / interlaced=0 / bluray_compat=0 / constrained_intra=0 / bframes=7 / b_pyramid=2 / b_adapt=2 / b_bias=0 / direct=3 / weightb=1 / open_gop=0 / weightp=2 / keyint=250 / keyint_min=23 / scenecut=40 / intra_refresh=0 / rc_lookahead=50 / rc=2pass / mbtree=1 / bitrate=8153 / ratetol=1.0 / qcomp=0.60 / qpmin=10 / qpmax=51 / qpstep=4 / cplxblur=20.0 / qblur=0.5 / vbv_maxrate=14000 / vbv_bufsize=14000 / nal_hrd=none / filler=0 / ip_ratio=1.40 / aq=1:1.00
Default : Yes
Forced : No
Audio #1
ID : 2
Format : AC-3
Format/Info : Audio Coding 3
Mode extension : CM (complete main)
Format settings, Endianness : Big
Codec ID : A_AC3
Duration : 59mn 17s
Bit rate mode : Constant
Bit rate : 448 Kbps
Channel(s) : 2 channels
Channel positions : Front: L R
Sampling rate : 48.0 KHz
Compression mode : Lossy
Stream size : 190 MiB (5%)
Title : (VO) Ю. Онищенко
Language : Russian
Default : Yes
Forced : No
Audio #2
ID : 3
Format : AC-3
Format/Info : Audio Coding 3
Mode extension : CM (complete main)
Format settings, Endianness : Big
Codec ID : A_AC3
Duration : 59mn 17s
Bit rate mode : Constant
Bit rate : 448 Kbps
Channel(s) : 2 channels
Channel positions : Front: L R
Sampling rate : 48.0 KHz
Compression mode : Lossy
Stream size : 190 MiB (5%)
Language : English
Default : No
Forced : No
Text #1
ID : 4
Format : UTF-8
Codec ID : S_TEXT/UTF8
Codec ID/Info : UTF-8 Plain Text
Language : Russian
Default : Yes
Forced : No
Text #2
ID : 5
Format : UTF-8
Codec ID : S_TEXT/UTF8
Codec ID/Info : UTF-8 Plain Text
Language : English
Default : No
Forced : No
Menu
00:00:00.000 : :chapter 01
00:07:46.000 : :chapter 02
00:14:26.000 : :chapter 03
00:20:07.000 : :chapter 04
00:27:27.000 : :chapter 05
00:36:22.000 : :chapter 06
00:46:54.000 : :chapter 07

Скриншоты



Релиз от PowerRock
[Профиль] [ЛС]
Кто просматривает тему:

Показать сообщения:    

Текущее время: Сегодня 16:55

Часовой пояс: GMT



Вы не можете начинать темы
Вы не можете отвечать на сообщения
Вы не можете редактировать свои сообщения
Вы не можете удалять свои сообщения
Вы не можете голосовать в опросах
Вы не можете прикреплять файлы к сообщениям
Вы не можете скачивать файлы