BBC: Все что вы хотели о нем знать, но боялись спросить. Жир / The Truth About Fat (Matt Ainsworth) [2015 г., Документальный, научно-познавательный, HDTVRip 720p]

 
Автор Сообщение

skorpionN ®

Пол:

Стаж: 2 года 8 месяцев

Сообщений: 856



Награды: 4 (Подробнее)

Top Releaser 2 (Количество: 1) Mega Seeder 1 (Количество: 1) Mega Seeder 2 (Количество: 1)
Торрент-статистика

Создавать темы 05-Ноя-2016 11:52

[Цитировать]

BBC: Все что вы хотели о нем знать, но боялись спросить. Жир / The Truth About Fat
Год выпуска: 2015
Страна: Великобритания, BBC Scotland Science Production
Жанр: Документальный, научно-познавательный
Продолжительность: 00:51:07
Перевод: Профессиональный (двухголосый)
Режиссер: Matt Ainsworth
В ролях: ведущая- д-р. Saleyha Ahsan
Описание: Репутацию главного врага человечества завоевал жир. Пора узнать о нём всю правду. Врачи уже несколько десятилетий рекомендуют избегать насыщенного жира. Последние годы модные журналы пишут, что люди неправильно относятся к жиру. Стало модным добавлять сливочное масло даже в кофе. Крайне противоречивая информация смущает и приводит в замешательство. Само слово жир сбивает с толку. Съеденный жир быстро попадает в кровь. Она поглощает 95% жира. Тело человека устроено так, чтобы выжимать жир с любой еды. Жир внутри организма окружает все органы. Он намного опаснее подкожного. Это может привести к диабету и сердечной недостаточности. Но жизнь без жира влияет на тело и разум неожиданным образом. Эффект бывает странным, а иногда и неприятным. Исключить жир из рациона почти невозможно. Он есть во всех продуктах, даже в диетических. Идея полностью обезжиренной диеты почти неосуществима. Вся еда содержит хотя бы минимальное количество жира. Он есть лаже в овощах. Организм никогда не согласится с безжировой диетой. Он не в состоянии привыкнуть к отсутствию жиров. Обычно люди едят столько жиров, сколько хотят. Это приводит к его переизбытку.
Но сжечь его легко. Нужны регулярные физические занятия по системе: 2 мин. - нагрузка, 1 мин. - отдых, повтор 7 раз, всего - 20 мин. После этого занятия организм сам сжигает лишний жир в течении 2,5 часов.
Качество: HDTVRip 720p
Формат: MKV
Видео кодек: H.264
Аудио кодек: AC3
Видео: 1280x720 25.00 fps 3000 kbps
Аудио 1: (Rus) AC3 2ch, 48kHz, 192 kbps
Аудио 2: (En) AC3 2ch, 48kHz, 192 kbps

Скриншоты


MediaInfo:

Format : Matroska
Format version : Version 4 / Version 2
File size : 1.21 GiB
Duration : 51 min 7 s
Overall bit rate mode : Variable
Overall bit rate : 3 383 kb/s
Encoded date : UTC 2016-11-05 10:55:39
Writing application : mkvmerge v7.3.0 ('Nouages') 64bit built on Oct 22 2014 18:53:34
Writing library : libebml v1.3.0 + libmatroska v1.4.1
Video
ID : 1
Format : AVC
Format/Info : Advanced Video Codec
Format profile : High@L4.1
Format settings, CABAC : Yes
Format settings, ReFrames : 3 frames
Codec ID : V_MPEG4/ISO/AVC
Duration : 51 min 7 s
Bit rate mode : Variable
Bit rate : 3 000 kb/s
Maximum bit rate : 8 000 kb/s
Width : 1 280 pixels
Height : 720 pixels
Display aspect ratio : 16:9
Frame rate mode : Constant
Frame rate : 25.000 FPS
Standard : NTSC
Color space : YUV
Chroma subsampling : 4:2:0
Bit depth : 8 bits
Scan type : Progressive
Bits/(Pixel*Frame) : 0.130
Stream size : 1.07 GiB (89%)
Writing library : x264 core 114
Encoding settings : cabac=1 / ref=3 / deblock=1:0:0 / analyse=0x3:0x113 / me=hex / subme=7 / psy=1 / psy_rd=1.00:0.00 / mixed_ref=1 / me_range=16 / chroma_me=1 / trellis=1 / 8x8dct=1 / cqm=2 / deadzone=21,11 / fast_pskip=1 / chroma_qp_offset=-4 / threads=6 / sliced_threads=0 / slices=1 / nr=0 / decimate=1 / interlaced=0 / constrained_intra=0 / bframes=3 / b_pyramid=0 / b_adapt=1 / b_bias=0 / direct=1 / weightb=1 / open_gop=0 / weightp=2 / keyint=250 / keyint_min=25 / scenecut=40 / intra_refresh=0 / rc_lookahead=40 / rc=2pass / mbtree=1 / bitrate=3000 / ratetol=1.0 / qcomp=0.60 / qpmin=5 / qpmax=69 / qpstep=4 / cplxblur=20.0 / qblur=0.5 / vbv_maxrate=8000 / vbv_bufsize=7995 / nal_hrd=vbr / ip_ratio=1.40 / aq=1:1.00
Default : Yes
Forced : No
Color range : Limited
Color primaries : BT.709
Transfer characteristics : BT.709
Matrix coefficients : BT.709
Audio #1
ID : 2
Format : AC-3
Format/Info : Audio Coding 3
Mode extension : CM (complete main)
Format settings, Endianness : Big
Codec ID : A_AC3
Duration : 51 min 7 s
Bit rate mode : Constant
Bit rate : 192 kb/s
Channel(s) : 2 channels
Channel positions : Front: L R
Sampling rate : 48.0 kHz
Frame rate : 31.250 FPS (1536 spf)
Compression mode : Lossy
Stream size : 70.2 MiB (6%)
Language : Russian
Default : Yes
Forced : No
Audio #2
ID : 3
Format : AC-3
Format/Info : Audio Coding 3
Mode extension : CM (complete main)
Format settings, Endianness : Big
Codec ID : A_AC3
Duration : 51 min 7 s
Bit rate mode : Constant
Bit rate : 192 kb/s
Channel(s) : 2 channels
Channel positions : Front: L R
Sampling rate : 48.0 kHz
Frame rate : 31.250 FPS (1536 spf)
Compression mode : Lossy
Stream size : 70.2 MiB (6%)
Language : English
Default : No
Forced : Yes
[Профиль] [ЛС]

ARI71

Стаж: 1 год 3 месяца

Сообщений: 82



Награды: Нет

Торрент-статистика

Создавать темы 05-Ноя-2016 16:18 (спустя 4 часа)

[Цитировать]

Может он действительно не дома, где нибудь в отъезде, а в интернет заходит через мобильный интернет, например через планшет..
[Профиль] [ЛС]

DarknesS

Стаж: 1 год 7 месяцев

Сообщений: 6



Награды: Нет

Торрент-статистика

Создавать темы 07-Ноя-2016 17:19 (спустя 2 дня 1 час)

[Цитировать]

104207Может он действительно не дома, где нибудь в отъезде, а в интернет заходит через мобильный интернет, например через планшет..
А про кого сие комментарий?
[Профиль] [ЛС]
Кто просматривает тему:

Показать сообщения:    

Текущее время: Сегодня 05:39

Часовой пояс: GMT



Вы не можете начинать темы
Вы не можете отвечать на сообщения
Вы не можете редактировать свои сообщения
Вы не можете удалять свои сообщения
Вы не можете голосовать в опросах
Вы не можете прикреплять файлы к сообщениям
Вы не можете скачивать файлы