BBC: Внутри человеческого тела / BBC: Inside the Human Body (2011) BDRip [H.264/1080p] [1-4 серии из 4]

 
Автор Сообщение

sergej644 ®

Пол:

Стаж: 4 года 11 месяцев

Сообщений: 6046

Откуда: Soviet Union



Награды: Нет

Торрент-статистика

Создавать темы 09-Дек-2014 20:49

[Цитировать]

-BBC: Внутри человеческого тела / BBC: Inside the Human Body (2011) BDRip [H.264/1080p] [1-4 серии из 4]-Режиссер / Телекомпания: Гидеон Брэдшоу, Нат Шарман /
Страна: Великобритания
Год выпуска: 2011
Жанр: Документальный
Актеры: Кристофер Коттон, Майкл Дж. Мосли
Описание: Этот сериал рассказывает о внутреннем мире человеческого тела. Используется эффектная графика, основанная на новейших достижениях науки.
Майкл Мосли приглашает нас в фантастическое путешествие по нашей внутренней вселенной.

Продолжительность: 4 x 00:50:00 (03:20:00)
Перевод: Одноголосый закадровый (профессиональный)
Видеокодек: MPEG-4 AVC/H.264
Битрейт видео: ~10.5 Mbps
Размер кадра: 1920 x 1080
Качество видео: BDRip [1080p]
Аудио:
Аудио #1: AC-3, 48.0 KHz, 2 ch, 192 Kbps, CBR (Russian)
Аудио #2: DTS, 48.0 KHz, 2 ch, 1 510 Kbps, CBR (English)
Содержание:

01. Сотворение / Creation

Описание: О последовательности биологических событий, которые приводят к человеческому рождению.Скриншоты:

02. От начала и до конца / First to Last

Описание: Майкл Мосли показывает, как тело выполняет бесчисленные маленькие чудеса, чтобы остаться в живых.Скриншоты:

03. Формирование мозга / Building Your Brain

Описание: О развитие мозга от рождения до совершеннолетия.Скриншоты:

04. Враждебный мир / Hostile World

Описание: Майкл Мосли рассказывает об эффективных способах защиты, которые использует наше тело против враждебного мира, где солнечный свет разрушает наше ДНК и каждый вдох содержит микробы, которые могут убить.Скриншоты:
Скриншоты:

MediaInfo (параметры всех серий идентичны)

Общее
Уникальный идентификатор : 237141934545501392851956315980185215451 (0xB267E0126C3DD62F80CC6C31076421DB)
Полное имя : D:\Релизы\Inside.the.Human.Body.2011.BDRip.1080p\Episode 1 Creation BDRip 1080p.mkv
Формат : Matroska
Версия формата : Version 2
Размер файла : 4,25 Гбайт
Продолжительность : 50 м.
Режим общего битрейта : Переменный
Общий поток : 12,2 Мбит/сек
Дата кодирования : UTC 2012-12-14 12:15:36
Программа кодирования : mkvmerge v5.7.0 ('The Whirlwind') built on Jul 8 2012 20:08:51
Библиотека кодирования : libebml v1.2.3 + libmatroska v1.3.0
Видео
Идентификатор : 1
Формат : AVC
Формат/Информация : Advanced Video Codec
Профиль формата : [url=mailto:High@L4.1]High@L4.1[/url]
Параметр CABAC формата : Да
Параметр ReFrames формата : 3 кадра
Идентификатор кодека : V_MPEG4/ISO/AVC
Продолжительность : 50 м.
Вид битрейта : Переменный
Битрейт : 10,5 Мбит/сек
Максимальный битрейт : 30,0 Мбит/сек
Ширина : 1920 пикселей
Высота : 1080 пикселей
Соотношение сторон : 16:9
Режим частоты кадров : Постоянный
Частота кадров : 25,000 кадров/сек
Цветовое пространство : YUV
Субдискретизация насыщенности : 4:2:0
Битовая глубина : 8 бит
Тип развёртки : Прогрессивная
Бит/(Пиксели*Кадры) : 0.203
Размер потока : 3,57 Гбайт (84%)
Библиотека кодирования : x264 core 129 r2230 1cffe9f
Настройки программы : cabac=1 / ref=4 / deblock=1:-3:-3 / analyse=0x3:0x113 / me=umh / subme=10 / psy=1 / psy_rd=1.00:0.00 / mixed_ref=1 / me_range=32 / chroma_me=1 / trellis=2 / 8x8dct=1 / cqm=0 / deadzone=21,11 / fast_pskip=1 / chroma_qp_offset=-2 / threads=6 / lookahead_threads=1 / sliced_threads=0 / slices=4 / nr=0 / decimate=1 / interlaced=0 / bluray_compat=1 / constrained_intra=0 / bframes=3 / b_pyramid=1 / b_adapt=2 / b_bias=0 / direct=3 / weightb=1 / open_gop=1 / weightp=1 / keyint=250 / keyint_min=1 / scenecut=40 / intra_refresh=0 / rc_lookahead=230 / rc=2pass / mbtree=1 / bitrate=10500 / ratetol=1.0 / qcomp=0.80 / qpmin=0 / qpmax=69 / qpstep=4 / cplxblur=20.0 / qblur=0.5 / vbv_maxrate=30000 / vbv_bufsize=10500 / nal_hrd=vbr / ip_ratio=1.40 / aq=1:1.00
Язык : English
Default : Да
Forced : Нет
Аудио #1
Идентификатор : 2
Формат : AC-3
Формат/Информация : Audio Coding 3
Расширение режима : CM (complete main)
Параметр Endianness формата : Big
Идентификатор кодека : A_AC3
Продолжительность : 50 м.
Вид битрейта : Постоянный
Битрейт : 192 Кбит/сек
Каналы : 2 канала
Расположение каналов : Front: L R
Частота : 48,0 КГц
Битовая глубина : 16 бит
Метод сжатия : С потерями
Размер потока : 68,7 Мбайт (2%)
Язык : Russian
Default : Да
Forced : Нет
Аудио #2
Идентификатор : 3
Формат : DTS
Формат/Информация : Digital Theater Systems
Режим : 16
Параметр Endianness формата : Big
Идентификатор кодека : A_DTS
Продолжительность : 50 м.
Вид битрейта : Постоянный
Битрейт : 1509 Кбит/сек
Каналы : 2 канала
Расположение каналов : Front: L R
Частота : 48,0 КГц
Битовая глубина : 24 бит
Метод сжатия : С потерями
Размер потока : 540 Мбайт (12%)
Язык : English
Default : Нет
Forced : Нет
Меню
00:00:00.000 : ru:Chapter 01
00:10:40.000 : ru:Chapter 02
00:19:05.000 : ru:Chapter 03
00:30:20.000 : ru:Chapter 04
00:39:48.000 : ru:Chapter 05
00:49:32.000 : ru:Chapter 06
00:50:01.760 : ru:Chapter 07
[Профиль] [ЛС]
Кто просматривает тему:

Показать сообщения:    

Текущее время: Сегодня 10:16

Часовой пояс: GMT



Вы не можете начинать темы
Вы не можете отвечать на сообщения
Вы не можете редактировать свои сообщения
Вы не можете удалять свои сообщения
Вы не можете голосовать в опросах
Вы не можете прикреплять файлы к сообщениям
Вы не можете скачивать файлы