BBC: Властители денег / Masters of Money [серии 1-3 из 3] (Martin Small, Tristan Quinn, Will Yearsley) [2010 г., Документальный, эконмика, политика, история, SATRip]

 
Автор Сообщение

skorpionN ®

Пол:

Стаж: 1 год 8 месяцев

Сообщений: 588



Награды: 4 (Подробнее)

Mega Seeder 3 (Количество: 1) Mega Seeder 2 (Количество: 1) Top Releaser 2 (Количество: 1)
Торрент-статистика

Создавать темы 27-Апр-2015 14:39

[Цитировать]

BBC: Властители денег / Masters of Money [серии 1-3 из 3]
Год выпуска: 2010
Страна: Великобритания, BBC Open University Partnership
Жанр: Документальный, экономика, политика, история
Продолжительность: 3x~00:50:48
Перевод: Профессиональный (двухголосый)
Режиссер: Martin Small, Tristan Quinn, Will Yearsley
В ролях: Ведущая - Стефани Фландерс
Описание: Американский документальный трехсерийный фильм "Властители денег" был снят по заказу британского телеканала BBC. Данная киноработа является попыткой полноценно раскрыть концепцию денег, долгов, прибыли и капитала.
Стефани Фландерс рассматривает вопросы о том, как тройка чрезвычайных мыслителей и основных деятелей в экономической сфере: Кейнс, Хайек и Маркс, повлияли на формирование экономического устройства современного мира. Фильм рассказывает о биографиях мыслителей, их жизненном пути, работах, теориях, учениях и конечно же о личном влиянии на мировую экономику. Благодаря их знаниям и взглядам современные экономисты смогут предугадать рецессии в экономике и биржевые падения, а также назвать причины этих явлений и особенности экономики.
Список серий:
01. Кейнс / Keynes
Джон Мейнард Кейнс и кейнсианская экономическая теория.
02. Хайек / Hayek
Фридрих Хайек и ценность его философии свободного рынка.
03. Маркс / Marx
Карл Маркс и его экономические теории.
Качество: SATRip
Формат: AVI
Видео кодек: XviD
Аудио кодек: AC3
Видео: 704x400 25fps ~1956 Kbps
Аудио: AC3 2ch, 48kHz, 192 kbps

Скриншоты


MediaInfo:

Format : AVI
Format/Info : Audio Video Interleave
File size : 783 MiB
Duration : 50mn 48s
Overall bit rate : 2 156 Kbps
Writing application : TMPGEnc Video Mastering Works 5 Version. 5.0.6.38
Writing library : TMPGEnc Video Mastering Works 5 Version. 5.0.6.38
Video
ID : 0
Format : MPEG-4 Visual
Format profile : Advanced Simple@L5
Format settings, BVOP : 2
Format settings, QPel : No
Format settings, GMC : No warppoints
Format settings, Matrix : Default (H.263)
Muxing mode : Packed bitstream
Codec ID : XVID
Codec ID/Hint : XviD
Duration : 50mn 48s
Bit rate : 1 956 Kbps
Width : 704 pixels
Height : 400 pixels
Display aspect ratio : 16:9
Frame rate : 25.000 fps
Color space : YUV
Chroma subsampling : 4:2:0
Bit depth : 8 bits
Scan type : Progressive
Compression mode : Lossy
Bits/(Pixel*Frame) : 0.278
Stream size : 711 MiB (91%)
Writing library : XviD 73
Audio
ID : 1
Format : AC-3
Format/Info : Audio Coding 3
Mode extension : CM (complete main)
Format settings, Endianness : Big
Codec ID : 2000
Duration : 50mn 48s
Bit rate mode : Constant
Bit rate : 192 Kbps
Channel(s) : 2 channels
Channel positions : Front: L R
Sampling rate : 48.0 KHz
Compression mode : Lossy
Stream size : 69.8 MiB (9%)
Alignment : Aligned on interleaves
Interleave, duration : 240 ms (6.00 video frames)
Interleave, preload duration : 224 ms

Внимание:

Раздача ведётся путём добавления новых серий; при каждом добавлении создаётся новый торрент. Чтобы начать докачку новой серии, пользователям необходимо сделать следующее:
- Остановить скачивание.
- Удалить старый торрент у себя из клиента (старые серии удалять не надо).
- Скачать новый торрент и запустить его у себя в клиенте вместо старого, при этом указать клиенту путь в старую папку куда и должно происходить скачивание новых серий.
Добавлено 03. Маркс / Marx


Последний раз редактировалось: skorpionN (2015-05-12 12:07), всего редактировалось 5 раз(а)
[Профиль] [ЛС]

KiruhaDelMar

Стаж: 1 год 8 месяцев

Сообщений: 246



Награды: Нет

Торрент-статистика

Создавать темы 27-Апр-2015 22:10 (спустя 7 часов)

[Цитировать]

так есть же у нас bm
[Профиль] [ЛС]

skorpionN ®

Пол:

Стаж: 1 год 8 месяцев

Сообщений: 588



Награды: 4 (Подробнее)

Mega Seeder 1 (Количество: 1) Top Releaser 2 (Количество: 1) Mega Seeder 2 (Количество: 1)
Торрент-статистика

Создавать темы 28-Апр-2015 11:02 (спустя 12 часов)

[Цитировать]

Ага, есть. У вас была 2 и 3 серия с битрейтом 1300 стримовским и звучком 44 кГц. Дерьмо у ВАС
[Профиль] [ЛС]

KiruhaDelMar

Стаж: 1 год 8 месяцев

Сообщений: 246



Награды: Нет

Торрент-статистика

Создавать темы 05-Май-2015 02:09 (спустя 6 дней)

[Цитировать]

зато по 3 рубля и вчера а у вас по 5 и сегодня aa
[Профиль] [ЛС]
Кто просматривает тему:

Показать сообщения:    

Текущее время: Сегодня 22:07

Часовой пояс: GMT



Вы не можете начинать темы
Вы не можете отвечать на сообщения
Вы не можете редактировать свои сообщения
Вы не можете удалять свои сообщения
Вы не можете голосовать в опросах
Вы не можете прикреплять файлы к сообщениям
Вы не можете скачивать файлы