BBC: Археология: Тайная история / Archaeology: A Secret History [серии 1-3 из 3] (Никола Шир / Nicola Seare, Энтони Барвелл / Anthony Barwell) [2013 г., Документальный, история, археология, SATRip]

 
Автор Сообщение

skorpionN ®

Пол:

Стаж: 1 год 8 месяцев

Сообщений: 585



Награды: 4 (Подробнее)

Top Releaser 2 (Количество: 1) Mega Seeder 1 (Количество: 1) Mega Seeder 2 (Количество: 1)
Торрент-статистика

Создавать темы 03-Апр-2015 14:32

[Цитировать]

BBC: Археология: Тайная история / Archaeology: A Secret History [серии 1-3 из 3]
Год выпуска: 2013
Страна: Великобритания
Жанр: Документальный, история, археология
Продолжительность: (00:51:39+00:51:08+00:58:25)
Перевод: Профессиональный (одноголосый) - SDI Media по заказу ТПО "Ред Медиа"
Режиссер: Никола Шир / Nicola Seare, Энтони Барвелл / Anthony Barwell
В ролях: ведущий - археолог доктор Ричард Майлз / Richard Miles
Описание: Археолог доктор Ричард Майлз представляет серию археологических открытий, позволяющих понять наше далекое прошлое. Он возвращает нас на 2000 лет назад, чтобы доказать библейскую истину. Затем мы увидим, как открытия XVIII-XIX веков изменили представление людей о зарождении цивилизации. И завершим путешествие вместе с переменой внимания XX-века от исследований жизни вельможных особ к жизни простых людей.
Список серий:
01. В начале / In the Beginning
02. Поиски цивилизации / The Search for Civilization
03. Сила прошлого / The Power of the Past

Качество: SATRip
Формат: AVI
Видео кодек: XviD
Аудио кодек: AC3
Видео: 720x400 25fps ~1800-1950 Kbps
Аудио: AC3 2ch, 48kHz, 192 kbps

Скриншоты


MediaInfo:

Format : AVI
Format/Info : Audio Video Interleave
File size : 726 MiB
Duration : 51mn 39s
Overall bit rate : 1 966 Kbps
Writing application : TMPGEnc Video Mastering Works 5 Version. 5.0.6.38
Writing library : TMPGEnc Video Mastering Works 5 Version. 5.0.6.38
Video
ID : 0
Format : MPEG-4 Visual
Format profile : Advanced Simple@L5
Format settings, BVOP : 2
Format settings, QPel : No
Format settings, GMC : No warppoints
Format settings, Matrix : Default (H.263)
Muxing mode : Packed bitstream
Codec ID : XVID
Codec ID/Hint : XviD
Duration : 51mn 39s
Bit rate : 1 767 Kbps
Width : 720 pixels
Height : 400 pixels
Display aspect ratio : 16:9
Frame rate : 25.000 fps
Color space : YUV
Chroma subsampling : 4:2:0
Bit depth : 8 bits
Scan type : Progressive
Compression mode : Lossy
Bits/(Pixel*Frame) : 0.245
Stream size : 653 MiB (90%)
Writing library : XviD 73
Audio
ID : 1
Format : AC-3
Format/Info : Audio Coding 3
Mode extension : CM (complete main)
Format settings, Endianness : Big
Codec ID : 2000
Duration : 51mn 39s
Bit rate mode : Constant
Bit rate : 192 Kbps
Channel(s) : 2 channels
Channel positions : Front: L R
Sampling rate : 48.0 KHz
Bit depth : 16 bits
Compression mode : Lossy
Stream size : 70.9 MiB (10%)
Alignment : Aligned on interleaves
Interleave, duration : 480 ms (12.00 video frames)

Внимание! Раздача ведётся путём добавления новых выпусков

Внимание! Раздача ведётся путём добавления новых выпусков; при каждом добавлении создаётся новый торрент. Чтобы начать докачку нового выпуска, пользователям необходимо сделать следующее:
(1) остановить скачивание,
(2) удалить старый торрент у себя из клиента (старые серии удалять не надо),
(3) скачать новый торрент и запустить его у себя в клиенте вместо старого, при этом указать клиенту путь в старую папку куда и должно происходить скачивание новых выпусков.
Ваш клиент при этом должен произвести хеширование (проверку) старой папки (если не производит сам - помогите ему сделать это). В результате он будет докачивать только те выпуски, которых у Вас ещё нет. Старые выпуски при этом не удаляются, а продолжают раздаваться!
Eсли Вы уже удалили старые выпуски, то предотвратить их повторную закачку можно, сняв галочки в соответствующих местах при запуске нового торрента. По возможности, желательно не удалять старые выпуски как можно дольше, чтобы релизёр не только продолжал раздавать старые выпуски, но и смог сконцентрироваться на новых.
Добавлено 03. Сила прошлого / The Power of the Past


Последний раз редактировалось: skorpionN (2015-04-06 06:12), всего редактировалось 2 раз(а)
[Профиль] [ЛС]

KiruhaDelMar

Стаж: 1 год 8 месяцев

Сообщений: 246



Награды: Нет

Торрент-статистика

Создавать темы 03-Апр-2015 15:43 (спустя 1 час 11 минут)

[Цитировать]

Дядя, звука нет respect
[Профиль] [ЛС]

skorpionN ®

Пол:

Стаж: 1 год 8 месяцев

Сообщений: 585



Награды: 4 (Подробнее)

Mega Seeder 1 (Количество: 1) Mega Seeder 2 (Количество: 1) Mega Seeder 3 (Количество: 1)
Торрент-статистика

Создавать темы 03-Апр-2015 16:46 (спустя 1 час 3 минуты)

[Цитировать]

Какого звука? С какого бодуна это у тебя? slow
[Профиль] [ЛС]

KiruhaDelMar

Стаж: 1 год 8 месяцев

Сообщений: 246



Награды: Нет

Торрент-статистика

Создавать темы 03-Апр-2015 18:10 (спустя 1 час 23 минуты)

[Цитировать]

Я нажимаю на предварительный просмотр в джете , звука нет , и плеером отдельно запускал, тажа фигня bl щас скачаем до конца , тогда скажу точно, но прогноз не оптимистический
[Профиль] [ЛС]

KiruhaDelMar

Стаж: 1 год 8 месяцев

Сообщений: 246



Награды: Нет

Торрент-статистика

Создавать темы 03-Апр-2015 19:26 (спустя 1 час 15 минут)

[Цитировать]

заработало bk
[Профиль] [ЛС]

skorpionN ®

Пол:

Стаж: 1 год 8 месяцев

Сообщений: 585



Награды: 4 (Подробнее)

Mega Seeder 2 (Количество: 1) Mega Seeder 3 (Количество: 1) Top Releaser 2 (Количество: 1)
Торрент-статистика

Создавать темы 03-Апр-2015 19:43 (спустя 16 минут)

[Цитировать]

Ты уже и без закачки смотреть хочеш. Совсем спятил старик.
[Профиль] [ЛС]

KiruhaDelMar

Стаж: 1 год 8 месяцев

Сообщений: 246



Награды: Нет

Торрент-статистика

Создавать темы 03-Апр-2015 22:55 (спустя 3 часа)

[Цитировать]

На джете включаешь ПОСЛЕДОВАТЕЛЬНУЮ загрузку и смотришь что хочешь до окончания загрузки, кроме твоего фильма естественно
[Профиль] [ЛС]

skorpionN ®

Пол:

Стаж: 1 год 8 месяцев

Сообщений: 585



Награды: 4 (Подробнее)

Top Releaser 2 (Количество: 1) Mega Seeder 3 (Количество: 1) Mega Seeder 2 (Количество: 1)
Торрент-статистика

Создавать темы 04-Апр-2015 10:23 (спустя 11 часов)

[Цитировать]

Вот поэтому с твоим MG я и не связываюсь. Только остановлю раздачу, потом включу и тебя уже нет. Он не перебирает порты или его просто сбрасывает. Работает если есть напарник. Сам нихрена найти не может. Подтвердилось, а про обновление я вообще молчу. За сутки ни разу не обновляет статистику твой клиент. Видать боится потерять связь. Короче это полный slow
[Профиль] [ЛС]

KiruhaDelMar

Стаж: 1 год 8 месяцев

Сообщений: 246



Награды: Нет

Торрент-статистика

Создавать темы 04-Апр-2015 12:09 (спустя 1 час 46 минут)

[Цитировать]

Типа мы с тобой не пробовали Уторент , забыл что ли , та жа фигня была slow
Я могу конечно для популярного пояснения поставить еще раз , но ты же все равно отмазку найдешь , на Бога свалишь или Далай-ламу
[Профиль] [ЛС]
Кто просматривает тему:

Показать сообщения:    

Текущее время: Сегодня 08:51

Часовой пояс: GMT



Вы не можете начинать темы
Вы не можете отвечать на сообщения
Вы не можете редактировать свои сообщения
Вы не можете удалять свои сообщения
Вы не можете голосовать в опросах
Вы не можете прикреплять файлы к сообщениям
Вы не можете скачивать файлы