BBC: Армада. Неизвестная история (12 дней, чтобы спасти Англию) / Armada: The Untold Story (12 Days to Save England) [серии 1-3 из 3] (Робин Дешвуд / Robin Dashwood, Тим Дан / Tim Dunn) [2015 г., Документальный, история, постановочный, HDTVRip 720p]

 
Автор Сообщение

skorpionN ®

Пол:

Стаж: 1 год 8 месяцев

Сообщений: 588



Награды: 4 (Подробнее)

Mega Seeder 2 (Количество: 1) Top Releaser 2 (Количество: 1) Mega Seeder 3 (Количество: 1)
Торрент-статистика

Создавать темы 15-Апр-2016 14:18

[Цитировать]

BBC: Армада. Неизвестная история (12 дней, чтобы спасти Англию) / Armada: The Untold Story (12 Days to Save England) [серии 1-3 из 3]
Год выпуска: 2015
Страна: Великобритания, BBC, History Production London
Жанр: Документальный, история, постановочный
Продолжительность: 3x ~ 00:51:30
Перевод: Профессиональный (многоголосый, закадровый), компания "Видеофильм ТВ"
Режиссер: Робин Дешвуд / Robin Dashwood, Тим Дан / Tim Dunn
Ведущий: Дэн Сноу / Dan Snow
В ролях: Анита Допсон (в роли Елизаветы I - королевы Англии ). Филип Кокс (в роли короля Испании Филиппа II). Руперт Фрейзер, Криспин Редман и др...
Участники: Доктор Трейси Борман, Джесси Чайлдс, Анна Уайтлок, профессор Дэвид Саул - военный историк Букингемского университета, профессор Джеффри Паркер - историк, специализирующийся на испанской и военной истории - Государственный университет штата Огайо, Роберт Хатчинсон - автор книги "Испанская Армада" и др.
Описание: Мы знаем Елизавету I как величайшую правительницу, королеву шекспировской Англии, покровительницу великих первооткрывателей и защитницу англиканской церкви. Но всё могло бы было сложиться иначе. Летом 1588 году Елизавете и всему английскому народу грозила смертельная опасность. Страна готовилась к вторжению самого мощного флота того времени - испанской Армады. В случае поражения Елизавету взяли бы в плен и казнили, а Англия оказалась бы во власти католической Испании. Последствия для Европы были бы трагическими. Чтобы понять что произошло в этот решающий исторический момент мы переплывём через Ла-Манш, по следам английского флота разгромившего в этих водах непобедимую испанскую Армаду. А доступ к свидетельствам очевидцев покажет нам о чем в тот момент думали сами главнокомандующие и позволит проникнуть за кулисы верховной власти Англии и Испании. Мы проследим события 12-ти летних дней 1588 года, когда судьба всей Англии висела на волоске и то каким образом Англии удалось избежать катастрофы.
Список серий:
01. День первый / Day 1
02. Битва за Англию / The Battle for England
03. Конец игры / Endgame

Качество: HDTVRip-AVC
Формат: MKV
Видео кодек: H.264
Аудио кодек: AC3
Видео: 1280x720 25.00fps 5000 Kbps
Аудио: AC3 2ch, 48kHz, 192 kbps

Скриншоты


MediaInfo:

E:\BBC_Armada_The Untold Story _720p\02_The Battle for England.mkv
General
Unique ID : 76842338890394173474117379341552267063 (0x39CF4BD0431397E560EDBBA3E0792F37)
Complete name : E:\BBC_Armada_The Untold Story _720p\02_The Battle for England.mkv
Format : Matroska
Format version : Version 2
File size : 1.88 GiB
Duration : 51mn 58s
Overall bit rate mode : Variable
Overall bit rate : 5 184 Kbps
Encoded date : UTC 2016-04-15 07:12:11
Writing application : TMPGEnc Video Mastering Works 5 Version. 5.0.6.38
Writing library : TMPGEnc Video Mastering Works 5 Version. 5.0.6.38
Video #2
ID : 2
Format : AVC
Format/Info : Advanced Video Codec
Format profile : High@L4
Format settings, CABAC : Yes
Format settings, ReFrames : 3 frames
Codec ID : V_MPEG4/ISO/AVC
Duration : 51mn 58s
Bit rate mode : Variable
Bit rate : 5 000 Kbps
Maximum bit rate : 8 000 Kbps
Width : 1 280 pixels
Height : 720 pixels
Display aspect ratio : 16:9
Frame rate mode : Constant
Frame rate : 25.000 fps
Standard : NTSC
Color space : YUV
Chroma subsampling : 4:2:0
Bit depth : 8 bits
Scan type : Progressive
Bits/(Pixel*Frame) : 0.217
Stream size : 1.77 GiB (94%)
Writing library : x264 core 114
Encoding settings : cabac=1 / ref=3 / deblock=1:0:0 / analyse=0x3:0x113 / me=hex / subme=7 / psy=1 / psy_rd=1.00:0.00 / mixed_ref=1 / me_range=16 / chroma_me=1 / trellis=1 / 8x8dct=1 / cqm=2 / deadzone=21,11 / fast_pskip=1 / chroma_qp_offset=-4 / threads=6 / sliced_threads=0 / slices=1 / nr=0 / decimate=1 / interlaced=0 / constrained_intra=0 / bframes=3 / b_pyramid=0 / b_adapt=1 / b_bias=0 / direct=1 / weightb=1 / open_gop=0 / weightp=2 / keyint=250 / keyint_min=25 / scenecut=40 / intra_refresh=0 / rc_lookahead=40 / rc=2pass / mbtree=1 / bitrate=5000 / ratetol=1.0 / qcomp=0.60 / qpmin=5 / qpmax=69 / qpstep=4 / cplxblur=20.0 / qblur=0.5 / vbv_maxrate=8000 / vbv_bufsize=7995 / nal_hrd=vbr / ip_ratio=1.40 / aq=1:1.00
Default : Yes
Forced : No
Color range : Limited
Color primaries : BT.709
Transfer characteristics : BT.709
Matrix coefficients : BT.709
Audio #1
ID : 1
Format : AC-3
Format/Info : Audio Coding 3
Mode extension : CM (complete main)
Format settings, Endianness : Big
Codec ID : A_AC3
Duration : 51mn 58s
Bit rate mode : Constant
Bit rate : 192 Kbps
Channel(s) : 2 channels
Channel positions : Front: L R
Sampling rate : 48.0 KHz
Compression mode : Lossy
Stream size : 71.4 MiB (4%)
Default : Yes
Forced : No
BBC: Армада. Неизвестная история (12 дней, чтобы спасти Англию) / Armada: The Untold Story (12 Days to Save England) [серии 1-3 из 3] HDTVRip 720p]
BBC: Армада. Неизвестная история (12 дней, чтобы спасти Англию) / Armada: The Untold Story (12 Days to Save England) [серии 1-3 из 3] SATRip]
[Профиль] [ЛС]

KiruhaDelMar

Стаж: 1 год 8 месяцев

Сообщений: 246



Награды: Нет

Торрент-статистика

Создавать темы 15-Апр-2016 19:39 (спустя 5 часов)

[Цитировать]

писец, тебе разве огород копаь не пора bg
[Профиль] [ЛС]
Кто просматривает тему:

Показать сообщения:    

Текущее время: Сегодня 22:00

Часовой пояс: GMT



Вы не можете начинать темы
Вы не можете отвечать на сообщения
Вы не можете редактировать свои сообщения
Вы не можете удалять свои сообщения
Вы не можете голосовать в опросах
Вы не можете прикреплять файлы к сообщениям
Вы не можете скачивать файлы