BBC: Армада. Неизвестная история (Армада: 12 дней, чтобы спасти Англию) / Armada: 12 Days to Save England [серии 1-3 из 3] (Робин Дешвуд / Robin Dashwood, Тим Дан / Tim Dunn) [2015 г., Документальный, история, постановочный, SATRip]

 
Автор Сообщение

skorpionN ®

Пол:

Стаж: 1 год 8 месяцев

Сообщений: 592



Награды: 4 (Подробнее)

Top Releaser 2 (Количество: 1) Mega Seeder 1 (Количество: 1) Mega Seeder 3 (Количество: 1)
Торрент-статистика

Создавать темы 23-Янв-2016 13:59

[Цитировать]

BBC: Армада. Неизвестная история (Армада: 12 дней, чтобы спасти Англию) / Armada: 12 Days to Save England [серии 1-3 из 3]
Год выпуска: 2015
Страна: Великобритания, BBC, History Production London
Жанр: Документальный, история, постановочный
Продолжительность: 3 x ~ 00:52:00
Перевод: Профессиональный (многоголосый, закадровый), компания "Видеофильм ТВ"
Режиссер: Робин Дешвуд / Robin Dashwood, Тим Дан / Tim Dunn
В ролях: Анита Допсон (в роли Елизаветы I - королевы Англии ). Филип Кокс (в роли короля Испании Филиппа II). Руперт Фрейзер, Криспин Редман и др...
Ведущий: Дэн Сноу / Dan Snow
Участники: Доктор Трейси Борман, Джесси Чайлдс, Анна Уайтлок, профессор Дэвид Саул - военный историк Букингемского университета, профессор Джеффри Паркер - историк, специализирующийся на испанской и военной истории - Государственный университет штата Огайо, Роберт Хатчинсон - автор книги "Испанская Армада" и др.
Описание: Мы знаем Елизавету I как величайшую правительницу, королеву шекспировской Англии, покровительницу великих первооткрывателей и защитницу англиканской церкви. Но всё могло бы было сложиться иначе. Летом 1588 году Елизавете и всему английскому народу грозила смертельная опасность. Страна готовилась к вторжению самого мощного флота того времени - испанской Армады. В случае поражения Елизавету взяли бы в плен и казнили, а Англия оказалась бы во власти католической Испании. Последствия для Европы были бы трагическими. Чтобы понять что произошло в этот решающий исторический момент мы переплывём через Ла-Манш, по следам английского флота разгромившего в этих водах непобедимую испанскую Армаду. А доступ к свидетельствам очевидцев покажет нам о чем в тот момент думали сами главнокомандующие и позволит проникнуть за кулисы верховной власти Англии и Испании. Мы проследим события 12-ти летних дней 1588 года, когда судьба всей Англии висела на волоске и то каким образом Англии удалось избежать катастрофы.
Список серий:
01. День первый / Day 1
02. Битва за Англию / The Battle for England
03. Конец игры / Endgame

Качество: SATRip
Формат: AVI
Видео кодек: XviD
Аудио кодек: AC3
Видео: 720x400 25fps 1800 kbps
Аудио: AC3 2ch, 48kHz, 192 kbps

Скриншоты


MediaInfo:

Format : AVI
Format/Info : Audio Video Interleave
File size : 743 MiB
Duration : 52mn 2s
Overall bit rate : 1 998 Kbps
Writing application : TMPGEnc Video Mastering Works 5 Version. 5.0.6.38
Writing library : TMPGEnc Video Mastering Works 5 Version. 5.0.6.38
Video
ID : 0
Format : MPEG-4 Visual
Format profile : Advanced Simple@L5
Format settings, BVOP : 2
Format settings, QPel : No
Format settings, GMC : No warppoints
Format settings, Matrix : Default (H.263)
Muxing mode : Packed bitstream
Codec ID : XVID
Codec ID/Hint : XviD
Duration : 52mn 2s
Bit rate : 1 798 Kbps
Width : 720 pixels
Height : 400 pixels
Display aspect ratio : 16:9
Frame rate : 25.000 fps
Color space : YUV
Chroma subsampling : 4:2:0
Bit depth : 8 bits
Scan type : Progressive
Compression mode : Lossy
Bits/(Pixel*Frame) : 0.250
Stream size : 669 MiB (90%)
Writing library : XviD 73
Audio
ID : 1
Format : AC-3
Format/Info : Audio Coding 3
Mode extension : CM (complete main)
Format settings, Endianness : Big
Codec ID : 2000
Duration : 52mn 1s
Bit rate mode : Constant
Bit rate : 192 Kbps
Channel(s) : 2 channels
Channel positions : Front: L R
Sampling rate : 48.0 KHz
Bit depth : 16 bits
Compression mode : Lossy
Stream size : 71.5 MiB (10%)
Alignment : Aligned on interleaves
Interleave, duration : 240 ms (6.00 video frames)
Interleave, preload duration : 224 ms

Внимание! Раздача ведётся путём добавления новых выпусков

Внимание! Раздача ведётся путём добавления новых выпусков; при каждом добавлении создаётся новый торрент. Чтобы начать докачку нового выпуска, пользователям необходимо сделать следующее:
(1) остановить скачивание,
(2) удалить старый торрент у себя из клиента (старые серии удалять не надо),
(3) скачать новый торрент и запустить его у себя в клиенте вместо старого, при этом указать клиенту путь в старую папку куда и должно происходить скачивание новых выпусков.
Ваш клиент при этом должен произвести хеширование (проверку) старой папки (если не производит сам - помогите ему сделать это). В результате он будет докачивать только те выпуски, которых у Вас ещё нет. Старые выпуски при этом не удаляются, а продолжают раздаваться!
Eсли Вы уже удалили старые выпуски, то предотвратить их повторную закачку можно, сняв галочки в соответствующих местах при запуске нового торрента. По возможности, желательно не удалять старые выпуски как можно дольше, чтобы релизёр не только продолжал раздавать старые выпуски, но и смог сконцентрироваться на новых.
Добавлено
03. Конец игры / Endgame
BBC: Армада. Неизвестная история (12 дней, чтобы спасти Англию) / Armada: The Untold Story (12 Days to Save England) [серии 1-3 из 3] HDTVRip 720p]
BBC: Армада. Неизвестная история (12 дней, чтобы спасти Англию) / Armada: The Untold Story (12 Days to Save England) [серии 1-3 из 3] SATRip]


Последний раз редактировалось: skorpionN (2016-04-15 14:24), всего редактировалось 4 раз(а)
[Профиль] [ЛС]

skorpionN ®

Пол:

Стаж: 1 год 8 месяцев

Сообщений: 592



Награды: 4 (Подробнее)

Top Releaser 2 (Количество: 1) Mega Seeder 1 (Количество: 1) Mega Seeder 2 (Количество: 1)
Торрент-статистика

Создавать темы 30-Янв-2016 12:13 (спустя 6 дней)

[Цитировать]

Сериал окончен
[Профиль] [ЛС]
Кто просматривает тему:

Показать сообщения:    

Текущее время: Сегодня 06:24

Часовой пояс: GMT



Вы не можете начинать темы
Вы не можете отвечать на сообщения
Вы не можете редактировать свои сообщения
Вы не можете удалять свои сообщения
Вы не можете голосовать в опросах
Вы не можете прикреплять файлы к сообщениям
Вы не можете скачивать файлы