Baltimora - Survivor In Love (2006) [APE|Lossless]<Italo-Disco>

 
Автор Сообщение

sergej644 ®

Пол:

Стаж: 4 года 11 месяцев

Сообщений: 6038

Откуда: Soviet Union



Награды: Нет

Торрент-статистика

Создавать темы 24-Дек-2014 22:36

[Цитировать]

-Baltimora - Survivor In Love (2006)- Год: 2006
Лейбл: ESonCD
Каталог #: ESCD 20069-2
Жанр: Italo-Disco
Продолжительность: 00:42:52
Кодек: APE
Битрейт: Lossless
Тип битрейта: image +.cue
Треклист:
01. Key Key Karimba 5:59
02. Global Love 4:39
03. Jimmy's Guitar 3:56
04. Come On Strike 4:48
05. Set Me Free 4:44
06. Survivor In Love 5:00
07. Call Me In The Heart Of The Night 4:54
08. Eye To Eye 4:14
09. Global Love (Mix Version) 4:38

Отчёт ЕАС&#58;

Exact Audio Copy V0.99 prebeta 5 from 4. May 2009
Отчёт EAC об извлечении, выполненном 5. сентября 2009, 21:36
Baltimora / Survivor In Love
Дисковод: Optiarc DVD RW AD-5200A Adapter: 0 ID: 0
Режим чтения : Достоверность
Использование точного потока : Да
Отключение кэша аудио : Да
Использование указателей C2 : Нет
Коррекция смещения при чтении : 48
Способность читать области Lead-in и Lead-out : Нет
Заполнение пропущенных сэмплов тишиной : Да
Удаление блоков с тишиной в начале и конце : Нет
При вычислениях CRC использовались нулевые сэмплы : Да
Интерфейс : Установленный внешний ASPI-интерфейс
Выходной формат : Внутренние WAV-операции
Формат сэмплов : 44.100 Гц; 16 бит; стерео
TOC извлечённого CD
Трек | Старт | Длительность | Начальный сектор | Конечный сектор
---------------------------------------------------------------------
1 | 0:00.00 | 5:59.09 | 0 | 26933
2 | 5:59.09 | 4:39.45 | 26934 | 47903
3 | 10:38.54 | 3:56.26 | 47904 | 65629
4 | 14:35.05 | 4:48.12 | 65630 | 87241
5 | 19:23.17 | 4:44.21 | 87242 | 108562
6 | 24:07.38 | 5:00.06 | 108563 | 131068
7 | 29:07.44 | 4:54.60 | 131069 | 153178
8 | 34:02.29 | 4:14.71 | 153179 | 172299
9 | 38:17.25 | 4:38.62 | 172300 | 193211
Характеристики диапазона извлечения и сообщения об ошибках
Выбранный диапазон
Имя файла E:\Baltimora - Survivor In Love\Baltimora - Survivor In Love.wav
Пиковый уровень 100.0 %
Качество диапазона 99.9 %
CRC теста 4191239C
CRC копии 4191239C
Копирование... OK
Ошибок не произошло
AccurateRip: сводка
Трек 1 точное извлечение (доверие 1) [437E2162]
Трек 2 точное извлечение (доверие 1) [CB953C9A]
Трек 3 точное извлечение (доверие 1) [277E982D]
Трек 4 точное извлечение (доверие 1) [03695D9B]
Трек 5 точное извлечение (доверие 1) [E8B716C5]
Трек 6 точное извлечение (доверие 1) [E8434E41]
Трек 7 точное извлечение (доверие 1) [CBAFF3A4]
Трек 8 точное извлечение (доверие 1) [C47D2C1D]
Трек 9 точное извлечение (доверие 1) [949AF118]
Все треки извлечены точно
Конец отчёта

Отчёт auCDtect Task manager&#58;

-----------------------
DON'T MODIFY THIS FILE
-----------------------
PERFORMER: auCDtect Task Manager, ver. 1.5.1RC4 build 1.5.1.5
Copyright (c) 2008-2010 y-soft. All rights reserved
http://y-soft.org
ANALYZER: auCDtect: CD records authenticity detector, version 0.8.2
Copyright (c) 2004 Oleg Berngardt. All rights reserved.
Copyright (c) 2004 Alexander Djourik. All rights reserved.
FILE: Baltimora - Survivor In Love.ape
  Size: 302380408 Hash: 8931D7AF393FA4F79B169120E27B3A44 Accuracy: -m0
  Conclusion: CDDA 100%
  Signature: 998B81DF5EC208FA05823ED052138ED6C4C125EE

Содержание индексной карты (.CUE&#41;&#58;

REM GENRE Italo-Disco
REM DATE 2006
REM DISCID 800A1009
REM COMMENT "ExactAudioCopy v0.99pb5"
PERFORMER "Baltimora"
TITLE "Survivor In Love"
FILE "Baltimora - Survivor In Love.ape" WAVE
  TRACK 01 AUDIO
    TITLE "Key Key Karimba"
    PERFORMER "Baltimora"
    FLAGS DCP
    INDEX 01 00:00:00
  TRACK 02 AUDIO
    TITLE "Global Love"
    PERFORMER "Baltimora"
    FLAGS DCP
    INDEX 00 05:57:09
    INDEX 01 05:59:09
  TRACK 03 AUDIO
    TITLE "Jimmy's Guitar"
    PERFORMER "Baltimora"
    FLAGS DCP
    INDEX 00 10:36:54
    INDEX 01 10:38:54
  TRACK 04 AUDIO
    TITLE "Come On Strike"
    PERFORMER "Baltimora"
    FLAGS DCP
    INDEX 00 14:33:05
    INDEX 01 14:35:05
  TRACK 05 AUDIO
    TITLE "Set Me Free"
    PERFORMER "Baltimora"
    FLAGS DCP
    INDEX 00 19:21:17
    INDEX 01 19:23:17
  TRACK 06 AUDIO
    TITLE "Survivor In Love"
    PERFORMER "Baltimora"
    FLAGS DCP
    INDEX 00 24:05:38
    INDEX 01 24:07:38
  TRACK 07 AUDIO
    TITLE "Call Me In The Heart Of The Night"
    PERFORMER "Baltimora"
    FLAGS DCP
    INDEX 00 29:05:44
    INDEX 01 29:07:44
  TRACK 08 AUDIO
    TITLE "Eye To Eye"
    PERFORMER "Baltimora"
    FLAGS DCP
    INDEX 00 34:00:29
    INDEX 01 34:02:29
  TRACK 09 AUDIO
    TITLE "Global Love (Mix Version)"
    PERFORMER "Baltimora"
    FLAGS DCP
    INDEX 00 38:15:25
    INDEX 01 38:17:25
[Профиль] [ЛС]

Создавать темы 13-Авг-2015 10:44 (спустя 7 месяцев 20 дней)

Топик был перенесен из форума Зарубежная в форум Technopop, Eurodance, Disco
sergej644
 
Кто просматривает тему:

Показать сообщения:    

Текущее время: Сегодня 10:33

Часовой пояс: GMT



Вы не можете начинать темы
Вы не можете отвечать на сообщения
Вы не можете редактировать свои сообщения
Вы не можете удалять свои сообщения
Вы не можете голосовать в опросах
Вы не можете прикреплять файлы к сообщениям
Вы не можете скачивать файлы