(Hard Rock) Bad Sister - Out of the Business - 1992 [FLAC, image+.cue, lossless]

 
Автор Сообщение

sergej644 ®

Пол:

Стаж: 4 года 11 месяцев

Сообщений: 6045

Откуда: Soviet Union



Награды: Нет

Торрент-статистика

Создавать темы 05-Июл-2015 18:58

[Цитировать]

-Bad Sister / Out of the Business-- Год издания: 1992
Страна: Germany
Жанр: Hard Rock
Продолжительность: 00:57:23-Лейбл издания: Hurricane, Explorer
Номер по каталогу: EU
Формат: FLAC
Битрейт аудио: lossless
Тип рипа: image+.cue
Наличие сканов в содержимом раздачи: да
-

Трэклист

01. Stop This Game (05:19)
02. Bad Attitude (03:56)
03. S.O.S. (05:03)
04. How Much Love (04:00)
05. Can't Do It Right (04:12)
06. Heart's Diversion (04:34)
07. Cry in the Night (04:17)
08. Inside Out (04:58)
09. Heaven or Hell (04:31)
10. No Scarface (03:49)
11. Angel Eyes (04:42)
12. Hide Your Love (04:31)
13. Breakdown (03:33)
-

Лог создания рипа

Exact Audio Copy V1.0 beta 3 from 29. August 2011
EAC extraction logfile from 29. May 2015, 17:48
Bad Sister / Out of the Business
Used drive  : PLEXTOR BD-R   PX-B940SA   Adapter: 5  ID: 0
Read mode               : Secure
Utilize accurate stream : Yes
Defeat audio cache      : Yes
Make use of C2 pointers : No
Read offset correction                      : 667
Overread into Lead-In and Lead-Out          : No
Fill up missing offset samples with silence : Yes
Delete leading and trailing silent blocks   : No
Null samples used in CRC calculations       : Yes
Used interface                              : Installed external ASPI interface
Used output format              : User Defined Encoder
Selected bitrate                : 128 kBit/s
Quality                         : High
Add ID3 tag                     : Yes
Command line compressor         : G:\Program Files (x86)\Exact Audio Copy\Flac\flac.exe
Additional command line options : -V -8 -T "Date=%year%" -T "Genre=%genre%" %source%
TOC of the extracted CD
     Track |   Start  |  Length  | Start sector | End sector
    ---------------------------------------------------------
        1  |  0:00.00 |  5:19.00 |         0    |    23924
        2  |  5:19.00 |  3:56.00 |     23925    |    41624
        3  |  9:15.00 |  5:02.12 |     41625    |    64286
        4  | 14:17.12 |  3:59.63 |     64287    |    82274
        5  | 18:17.00 |  4:12.00 |     82275    |   101174
        6  | 22:29.00 |  4:34.00 |    101175    |   121724
        7  | 27:03.00 |  4:17.00 |    121725    |   140999
        8  | 31:20.00 |  4:58.00 |    141000    |   163349
        9  | 36:18.00 |  4:31.00 |    163350    |   183674
       10  | 40:49.00 |  3:49.00 |    183675    |   200849
       11  | 44:38.00 |  4:41.02 |    200850    |   221926
       12  | 49:19.02 |  4:30.73 |    221927    |   242249
       13  | 53:50.00 |  3:33.00 |    242250    |   258224
Range status and errors
Selected range
     Filename D:\MUSIC\Bad Sister - Out of the Business.wav
     Peak level 100.0 %
     Extraction speed 2.4 X
     Range quality 99.9 %
     Test CRC A4EE2125
     Copy CRC FEB0874D
     Copy OK
No errors occurred
AccurateRip summary
Track  1  cannot be verified as accurate (confidence 2)  [E8DA4936], AccurateRip returned [B7848BA3]  (AR v2)
Track  2  cannot be verified as accurate (confidence 2)  [7CBD5463], AccurateRip returned [523E1391]  (AR v2)
Track  3  cannot be verified as accurate (confidence 2)  [A4DF7752], AccurateRip returned [4FDCD9CE]  (AR v2)
Track  4  cannot be verified as accurate (confidence 2)  [EF3B7654], AccurateRip returned [0188A327]  (AR v2)
Track  5  cannot be verified as accurate (confidence 2)  [82F4AC1B], AccurateRip returned [024F8BB2]  (AR v2)
Track  6  cannot be verified as accurate (confidence 2)  [D673E79F], AccurateRip returned [A7AA025C]  (AR v2)
Track  7  cannot be verified as accurate (confidence 2)  [39B62962], AccurateRip returned [7C290032]  (AR v2)
Track  8  cannot be verified as accurate (confidence 2)  [3F602F74], AccurateRip returned [DFF65E82]  (AR v2)
Track  9  cannot be verified as accurate (confidence 2)  [5D74EBE3], AccurateRip returned [BB47B2AD]  (AR v2)
Track 10  cannot be verified as accurate (confidence 2)  [9C19798E], AccurateRip returned [D5757D89]  (AR v2)
Track 11  cannot be verified as accurate (confidence 2)  [F90BE939], AccurateRip returned [0A8C6133]  (AR v2)
Track 12  cannot be verified as accurate (confidence 2)  [CEBEC9F0], AccurateRip returned [8A93F80C]  (AR v2)
Track 13  cannot be verified as accurate (confidence 2)  [34F706DD], AccurateRip returned [4E82E9EF]  (AR v2)
No tracks could be verified as accurate
You may have a different pressing from the one(s) in the database
End of status report

Индексная карта (non-compilant .cue)

REM GENRE "Hard FM"
REM DATE 1991
REM DISCID B00D730D
REM COMMENT "ExactAudioCopy v1.0b3"
PERFORMER "Bad Sister"
TITLE "Out of the Business"
FILE "Bad Sister - Out of the Business.flac" WAVE
  TRACK 01 AUDIO
    TITLE "1. Stop This Game"
    PERFORMER "Bad Sister"
    INDEX 01 00:00:00
  TRACK 02 AUDIO
    TITLE "2. Bad Attitude"
    PERFORMER "Bad Sister"
    INDEX 01 05:19:00
  TRACK 03 AUDIO
    TITLE "3. S.O.S."
    PERFORMER "Bad Sister"
    INDEX 00 09:13:37
    INDEX 01 09:15:00
  TRACK 04 AUDIO
    TITLE "4. How Much Love"
    PERFORMER "Bad Sister"
    INDEX 01 14:17:12
  TRACK 05 AUDIO
    TITLE "5. Can't Do It Right"
    PERFORMER "Bad Sister"
    INDEX 00 18:16:37
    INDEX 01 18:17:00
  TRACK 06 AUDIO
    TITLE "6. Heart's Diversion"
    PERFORMER "Bad Sister"
    INDEX 00 22:28:12
    INDEX 01 22:29:00
  TRACK 07 AUDIO
    TITLE "7. Cry in the Night"
    PERFORMER "Bad Sister"
    INDEX 00 27:02:12
    INDEX 01 27:03:00
  TRACK 08 AUDIO
    TITLE "8. Inside Out"
    PERFORMER "Bad Sister"
    INDEX 00 31:18:25
    INDEX 01 31:20:00
  TRACK 09 AUDIO
    TITLE "9. Heaven or Hell"
    PERFORMER "Bad Sister"
    INDEX 00 36:17:62
    INDEX 01 36:18:00
  TRACK 10 AUDIO
    TITLE "10. No Scarface"
    PERFORMER "Bad Sister"
    INDEX 00 40:48:37
    INDEX 01 40:49:00
  TRACK 11 AUDIO
    TITLE "11. Angel Eyes"
    PERFORMER "Bad Sister"
    INDEX 00 44:36:25
    INDEX 01 44:38:00
  TRACK 12 AUDIO
    TITLE "12. Hide Your Love"
    PERFORMER "Bad Sister"
    INDEX 00 49:17:50
    INDEX 01 49:19:02
  TRACK 13 AUDIO
    TITLE "13. Breakdown"
    PERFORMER "Bad Sister"
    INDEX 00 53:49:25
    INDEX 01 53:50:00

Состав

Suzie Lohmar: Вокал
Jorn Saul: Бас-гитара
Werner Kaul: Клавишные
Kai-Ove Kessler: Барабаны
Sven Lange: Гитара
--Не забываем говорить
[Профиль] [ЛС]
Показать сообщения:    

Текущее время: Сегодня 22:24

Часовой пояс: GMT



Вы не можете начинать темы
Вы не можете отвечать на сообщения
Вы не можете редактировать свои сообщения
Вы не можете удалять свои сообщения
Вы не можете голосовать в опросах
Вы не можете прикреплять файлы к сообщениям
Вы не можете скачивать файлы