Bad Boys Blue - Golden Disco Hits (2001) [FLAC|Lossless]<Euro-Disco>

 
Автор Сообщение

sergej644 ®

Пол:

Стаж: 4 года 11 месяцев

Сообщений: 6042

Откуда: Soviet Union



Награды: Нет

Торрент-статистика

Создавать темы 25-Дек-2014 00:12

[Цитировать]

-Bad Boys Blue - Golden Disco Hits (2001)- Год: 2001
Издание: Winner Music
Каталог№: V051
Жанр: Euro-Disco
Источник(Релизёр) : Bigbeer
Сканы: Есть
Продолжительность: 01:12:49
Кодек: FLAC
Тип рипа: Image+.cue
Метод сжатия: Lossless
Official DR value: DR9-Треклист:
01. You're A Woman (5:22)
02. Show Me The Way (3:56)
03. I'm Your Believer '99 (3:00)
04. A Train To Nowere (3:53)
05. Lady In Black (3:47)
06. Anyway Forever (3:35)
07. The Power Of The Night (3:32)
08. For Your Love (5:53)
09. What F Feeling (3:21)
10. Kiss You All Over, Baby (New Version) (3:50)
11. Do What You Do (3:33)
12. From Heart To Heart (3:36)
13. Jungle In My Heart (3:37)
14. Thinking About You (3:28)
15. Queen Of Hearts '99 (3:47)
16. A World Without You (3:25)
17. I 'm Your Believer (3:34)
18. Why (Misty Eyes) (3:36)
19. Come Back To Stay (New Version) (4:05)
-

Содержимое индексной карты&#58;

REM GENRE Eurodance
REM DATE 2001
REM DISCID 0E111113
REM COMMENT "ExactAudioCopy v1.0b3"
PERFORMER "Bad Boys Blue"
TITLE "Golden Disco Hits"
FILE "Bad Boys Blue - Golden Disco Hits.flac" WAVE
  TRACK 01 AUDIO
    TITLE "You're A Woman"
    PERFORMER "Bad Boys Blue"
    INDEX 01 00:00:00
  TRACK 02 AUDIO
    TITLE "Show Me The Way"
    PERFORMER "Bad Boys Blue"
    INDEX 00 05:19:65
    INDEX 01 05:21:65
  TRACK 03 AUDIO
    TITLE "I'm Your Believer '99"
    PERFORMER "Bad Boys Blue"
    INDEX 00 09:15:70
    INDEX 01 09:17:70
  TRACK 04 AUDIO
    TITLE "A Train To Nowere"
    PERFORMER "Bad Boys Blue"
    INDEX 00 12:16:14
    INDEX 01 12:18:14
  TRACK 05 AUDIO
    TITLE "Lady In Black"
    PERFORMER "Bad Boys Blue"
    INDEX 00 16:09:24
    INDEX 01 16:11:24
  TRACK 06 AUDIO
    TITLE "Anyway Forever"
    PERFORMER "Bad Boys Blue"
    INDEX 00 19:55:72
    INDEX 01 19:57:72
  TRACK 07 AUDIO
    TITLE "The Power Of The Night"
    PERFORMER "Bad Boys Blue"
    INDEX 00 23:31:23
    INDEX 01 23:33:23
  TRACK 08 AUDIO
    TITLE "For Your Love"
    PERFORMER "Bad Boys Blue"
    INDEX 00 27:03:38
    INDEX 01 27:05:38
  TRACK 09 AUDIO
    TITLE "What F Feeling"
    PERFORMER "Bad Boys Blue"
    INDEX 00 32:56:50
    INDEX 01 32:58:50
  TRACK 10 AUDIO
    TITLE "Kiss You All Over, Baby (New Version)"
    PERFORMER "Bad Boys Blue"
    INDEX 00 36:17:20
    INDEX 01 36:19:20
  TRACK 11 AUDIO
    TITLE "Do What You Do"
    PERFORMER "Bad Boys Blue"
    INDEX 00 40:07:52
    INDEX 01 40:09:52
  TRACK 12 AUDIO
    TITLE "From Heart To Heart"
    PERFORMER "Bad Boys Blue"
    INDEX 00 43:40:24
    INDEX 01 43:42:24
  TRACK 13 AUDIO
    TITLE "Jungle In My Heart"
    PERFORMER "Bad Boys Blue"
    INDEX 00 47:16:15
    INDEX 01 47:18:15
  TRACK 14 AUDIO
    TITLE "Thinking About You"
    PERFORMER "Bad Boys Blue"
    INDEX 00 50:53:12
    INDEX 01 50:55:12
  TRACK 15 AUDIO
    TITLE "Queen Of Hearts '99"
    PERFORMER "Bad Boys Blue"
    INDEX 00 54:20:74
    INDEX 01 54:22:74
  TRACK 16 AUDIO
    TITLE "A World Without You"
    PERFORMER "Bad Boys Blue"
    INDEX 00 58:07:62
    INDEX 01 58:09:62
  TRACK 17 AUDIO
    TITLE "I 'm Your Believer"
    PERFORMER "Bad Boys Blue"
    INDEX 00 61:32:45
    INDEX 01 61:34:45
  TRACK 18 AUDIO
    TITLE "Why (Misty Eyes)"
    PERFORMER "Bad Boys Blue"
    INDEX 00 65:06:36
    INDEX 01 65:08:36
  TRACK 19 AUDIO
    TITLE "Come Back To Stay (New Version)"
    PERFORMER "Bad Boys Blue"
    INDEX 00 68:42:20
    INDEX 01 68:44:20

Отчёт ЕАС&#58;

Exact Audio Copy V1.0 beta 3 from 29. August 2011
EAC extraction logfile from 7. October 2013, 12:48
Bad Boys Blue / Golden Disco Hits
Used drive  : Optiarc DVD RW AD-7243S   Adapter: 4  ID: 0
Read mode               : Secure
Utilize accurate stream : Yes
Defeat audio cache      : Yes
Make use of C2 pointers : No
Read offset correction                      : 48
Overread into Lead-In and Lead-Out          : No
Fill up missing offset samples with silence : Yes
Delete leading and trailing silent blocks   : No
Null samples used in CRC calculations       : Yes
Used interface                              : Native Win32 interface for Win NT & 2000
Used output format              : User Defined Encoder
Selected bitrate                : 1024 kBit/s
Quality                         : High
Add ID3 tag                     : No
Command line compressor         : C:\Program Files (x86)\Exact Audio Copy\Flac\flac.exe
Additional command line options : -8 -V -T "ARTIST=%artist%" -T "TITLE=%title%" -T "ALBUM=%albumtitle%" -T "DATE=%year%" -T "TRACKNUMBER=%tracknr1%" -T "GENRE=%genre%" -T "PERFORMER=%albuminterpret%" -T "COMPOSER=%composer%" %haslyrics%--tag-from-file=LYRICS="%lyricsfile%"%haslyrics% -T "ALBUMARTIST=%albumartist%" -T "DISCNUMBER=%cdnumber%" -T "TOTALDISCS=%totalcds%" -T "TOTALTRACKS=%numtracks%" -T "COMMENT=%comment%" %source% -o %dest%
TOC of the extracted CD
     Track |   Start  |  Length  | Start sector | End sector
    ---------------------------------------------------------
        1  |  0:00.00 |  5:21.65 |         0    |    24139
        2  |  5:21.65 |  3:56.05 |     24140    |    41844
        3  |  9:17.70 |  3:00.19 |     41845    |    55363
        4  | 12:18.14 |  3:53.10 |     55364    |    72848
        5  | 16:11.24 |  3:46.48 |     72849    |    89846
        6  | 19:57.72 |  3:35.26 |     89847    |   105997
        7  | 23:33.23 |  3:32.15 |    105998    |   121912
        8  | 27:05.38 |  5:53.12 |    121913    |   148399
        9  | 32:58.50 |  3:20.45 |    148400    |   163444
       10  | 36:19.20 |  3:50.32 |    163445    |   180726
       11  | 40:09.52 |  3:32.47 |    180727    |   196673
       12  | 43:42.24 |  3:35.66 |    196674    |   212864
       13  | 47:18.15 |  3:36.72 |    212865    |   229136
       14  | 50:55.12 |  3:27.62 |    229137    |   244723
       15  | 54:22.74 |  3:46.63 |    244724    |   261736
       16  | 58:09.62 |  3:24.58 |    261737    |   277094
       17  | 61:34.45 |  3:33.66 |    277095    |   293135
       18  | 65:08.36 |  3:35.59 |    293136    |   309319
       19  | 68:44.20 |  4:04.59 |    309320    |   327678
Range status and errors
Selected range
     Filename E:\Музыка\Lossless\Bad Boys Blue - Golden Disco Hits (2001)\Bad Boys Blue - Golden Disco Hits.wav
     Peak level 96.6 %
     Extraction speed 4.4 X
     Range quality 100.0 %
     Test CRC 905144CC
     Copy CRC 905144CC
     Copy OK
No errors occurred
AccurateRip summary
Track  1  not present in database
Track  2  not present in database
Track  3  not present in database
Track  4  not present in database
Track  5  not present in database
Track  6  not present in database
Track  7  not present in database
Track  8  not present in database
Track  9  not present in database
Track 10  not present in database
Track 11  not present in database
Track 12  not present in database
Track 13  not present in database
Track 14  not present in database
Track 15  not present in database
Track 16  not present in database
Track 17  not present in database
Track 18  not present in database
Track 19  not present in database
None of the tracks are present in the AccurateRip database
End of status report
---- CUETools DB Plugin V2.1.3
[CTDB TOCID: lJPuKwd1Qno1yxRWC73a7BfDa40-] disk not present in database, Submit result: lJPuKwd1Qno1yxRWC73a7BfDa40- has been uploaded
==== Log checksum 6F185A32A8DDB5633A03DDF1857D9E78531A6047CEC86744B6A8461C0D9B065B ====

Отчёт auCDtect Task manager&#58;

-----------------------
DON'T MODIFY THIS FILE
-----------------------
PERFORMER: auCDtect Task Manager, ver. 1.6.0 RC1 build 1.6.0.1
Copyright (c) 2008-2010 y-soft. All rights reserved
http://y-soft.org
ANALYZER: auCDtect: CD records authenticity detector, version 0.8.2
Copyright (c) 2004 Oleg Berngardt. All rights reserved.
Copyright (c) 2004 Alexander Djourik. All rights reserved.
FILE: Bad Boys Blue - Golden Disco Hits.flac
  Size: 541167250 Hash: 0333E13D79721F364326F82382CBD180 Accuracy: -m0
  Conclusion: CDDA 100%
  Signature: 540383FC1BC0B66EFCE583B9B88168BDEDD7F76A
Время раздачи: с 2:00 по 18:00 МСК-
[Профиль] [ЛС]

Создавать темы 13-Авг-2015 10:41 (спустя 7 месяцев 19 дней)

Топик был перенесен из форума Зарубежная в форум Technopop, Eurodance, Disco
sergej644
 
Показать сообщения:    

Текущее время: Сегодня 16:20

Часовой пояс: GMT



Вы не можете начинать темы
Вы не можете отвечать на сообщения
Вы не можете редактировать свои сообщения
Вы не можете удалять свои сообщения
Вы не можете голосовать в опросах
Вы не можете прикреплять файлы к сообщениям
Вы не можете скачивать файлы