Bad Boys Blue - Bad Boys Best (2007) [FLAC|Lossless]<Synth-pop, Disco>

 
Автор Сообщение

sergej644 ®

Пол:

Стаж: 4 года 11 месяцев

Сообщений: 6046

Откуда: Soviet Union



Награды: Нет

Торрент-статистика

Создавать темы 24-Дек-2014 23:09

[Цитировать]

-Bad Boys Blue - Bad Boys Best (2007)- Год: 2007
Жанр: Synth-pop, Disco
Лейбл: Sony BMG Music
Каталог #: 42502803219
Продолжительность: 01:18:32-Кодек: FLAC
Тип рипа: image + .cue
Битрейт: Lossless-Треклист:
01. You're A Woman (3:55)
02. Back To The Future (3:45)
03. L.O.V.E. In My Car (3:32)
04. Jungle In My Heart (3:41)
05. From Heaven To Heartache (3:35)
06. Lady In Black (3:28)
07. Don't Walk Away Suzanne (Et Cetera Remix) (3:28)
08. I'll Be Good (3:42)
09. A World Without You (Michelle) (3:27)
10. Queen Of Hearts (3:25)
11. Come Back And Stay (4:11)
12. Lovers In The Sand (3:28)
13. Do What You Do (3:35)
14. Save Your Love (3:27)
15. Have You Ever Had A Love Like This (3:39)
16. Hungry For Love (Rap Version) (3:23)
17. Kiss You All Over, Baby (3:41)
18. S.O.S. For Love (3:28)
19. Love Really Hurts Without You (3:16)
20. House Of Silence (3:34)
21. Don't Want Your Love (3:40)
22. Sweet Little Things (3:13)-

Отчёт ЕАС&#58;

Exact Audio Copy V1.0 beta 3 from 29. August 2011
Отчёт EAC об извлечении, выполненном 28. ноября 2013, 19:50
Bad Boys Blue / Bad Boys Best
Дисковод: ASUS    DRW-2014S1T   Adapter: 7  ID: 0
Режим чтения                 : Достоверность
Использование точного потока : Да
Отключение кэша аудио        : Да
Использование указателей C2  : Нет
Коррекция смещения при чтении                     : 6
Способность читать области Lead-in и Lead-out     : Нет
Заполнение пропущенных сэмплов тишиной            : Да
Удаление блоков с тишиной в начале и конце        : Нет
При вычислениях CRC использовались нулевые сэмплы : Да
Интерфейс                                         : Установленный внешний ASPI-интерфейс
Выходной формат : Внутренние WAV-операции
Формат сэмплов  : 44.100 Гц; 16 бит; стерео
TOC извлечённого CD
     Трек |   Старт  | Длительность | Начальный сектор | Конечный сектор
    ---------------------------------------------------------------------
       1  |  0:00.32 |    3:54.43   |          32      |      17624
       2  |  3:55.00 |    3:44.70   |       17625      |      34494
       3  |  7:39.70 |    3:32.35   |       34495      |      50429
       4  | 11:12.30 |    3:41.27   |       50430      |      67031
       5  | 14:53.57 |    3:34.69   |       67032      |      83150
       6  | 18:28.51 |    3:27.74   |       83151      |      98749
       7  | 21:56.50 |    3:28.34   |       98750      |     114383
       8  | 25:25.09 |    3:42.31   |      114384      |     131064
       9  | 29:07.40 |    3:27.15   |      131065      |     146604
      10  | 32:34.55 |    3:24.42   |      146605      |     161946
      11  | 35:59.22 |    4:11.24   |      161947      |     180795
      12  | 40:10.46 |    3:27.72   |      180796      |     196392
      13  | 43:38.43 |    3:34.57   |      196393      |     212499
      14  | 47:13.25 |    3:26.41   |      212500      |     227990
      15  | 50:39.66 |    3:38.57   |      227991      |     244397
      16  | 54:18.48 |    3:22.57   |      244398      |     259604
      17  | 57:41.30 |    3:40.50   |      259605      |     276154
      18  | 61:22.05 |    3:27.63   |      276155      |     291742
      19  | 64:49.68 |    3:15.60   |      291743      |     306427
      20  | 68:05.53 |    3:33.49   |      306428      |     322451
      21  | 71:39.27 |    3:40.36   |      322452      |     338987
      22  | 75:19.63 |    3:12.60   |      338988      |     353447
Характеристики диапазона извлечения и сообщения об ошибках
Выбранный диапазон
     Имя файла Z:\Temp\Bad Boys Blue - Bad Boys Best.wav
     Пиковый уровень 100.0 %
     Скорость извлечения 9.7 X
     Качество диапазона 100.0 %
     CRC теста 5F30E208
     CRC копии 5F30E208
     Копирование... OK
Ошибок не произошло
AccurateRip: сводка
Трек  1  : извлечено точно (доверие 2)  [21E0EC96]  (AR v1)
Трек  2  : извлечено точно (доверие 2)  [B780889B]  (AR v1)
Трек  3  : извлечено точно (доверие 2)  [4A7E3E29]  (AR v1)
Трек  4  : извлечено точно (доверие 2)  [3FD9D09B]  (AR v1)
Трек  5  : извлечено точно (доверие 2)  [0B1849B1]  (AR v1)
Трек  6  : извлечено точно (доверие 2)  [6840E2E8]  (AR v1)
Трек  7  : извлечено точно (доверие 2)  [955025AF]  (AR v1)
Трек  8  : извлечено точно (доверие 2)  [80B2113C]  (AR v1)
Трек  9  : извлечено точно (доверие 2)  [A47DD6B0]  (AR v1)
Трек 10  : извлечено точно (доверие 2)  [5C783B2A]  (AR v1)
Трек 11  : извлечено точно (доверие 2)  [C0316F7E]  (AR v1)
Трек 12  : извлечено точно (доверие 2)  [6B019592]  (AR v1)
Трек 13  : извлечено точно (доверие 2)  [A10FFF3D]  (AR v1)
Трек 14  : извлечено точно (доверие 2)  [764DC236]  (AR v1)
Трек 15  : извлечено точно (доверие 2)  [D3A0A179]  (AR v1)
Трек 16  : извлечено точно (доверие 2)  [3AC0A3A8]  (AR v1)
Трек 17  : извлечено точно (доверие 2)  [67667C25]  (AR v1)
Трек 18  : извлечено точно (доверие 2)  [4FF32071]  (AR v1)
Трек 19  : извлечено точно (доверие 2)  [A6607190]  (AR v1)
Трек 20  : извлечено точно (доверие 2)  [5BC48017]  (AR v1)
Трек 21  : извлечено точно (доверие 2)  [37CCBD7D]  (AR v1)
Трек 22  : извлечено точно (доверие 2)  [76F0EE78]  (AR v1)
Все треки извлечены точно
Конец отчёта
---- CUETools DB Plugin V2.1.3
[CTDB TOCID: XxkTldt.JnSsXIdhyE.E00FcaI0-] disk not present in database, Submit result: discs with pregaps not supported in this protocol version
==== Контрольная сумма отчёта E24E578DC6650B5E68B231F8C0E178669B4CFE1A6CA4E6F3EAE3D97E6FA3AB4D ====

Отчёт auCDtect Task manager&#58;

-----------------------
DON'T MODIFY THIS FILE
-----------------------
PERFORMER: auCDtect Task Manager, ver. 1.6.0 RC1 build 1.6.0.1
Copyright (c) 2008-2010 y-soft. All rights reserved
http://y-soft.org
ANALYZER: auCDtect: CD records authenticity detector, version 0.8.2
Copyright (c) 2004 Oleg Berngardt. All rights reserved.
Copyright (c) 2004 Alexander Djourik. All rights reserved.
FILE: Bad Boys Blue - Bad Boys Best.flac
  Size: 607201408 Hash: 886825A2E5FD09CD3E1AD580A45461AB Accuracy: -m0
  Conclusion: CDDA 100%
  Signature: BE00BA4EECB529AC04EABBCA10B0B505BE6AE8DE

Содержание индексной карты (.CUE&#41;

REM GENRE Euro-Disco
REM DATE 2007
REM DISCID 2D126816
REM COMMENT "ExactAudioCopy v1.0b3"
PERFORMER "Bad Boys Blue"
TITLE "Bad Boys Best"
FILE "Bad Boys Blue - Bad Boys Best.flac" WAVE
  TRACK 01 AUDIO
    TITLE "You're A Woman"
    PERFORMER "Bad Boys Blue"
    INDEX 00 00:00:00
    INDEX 01 00:00:32
  TRACK 02 AUDIO
    TITLE "Back To The Future"
    PERFORMER "Bad Boys Blue"
    INDEX 00 03:52:72
    INDEX 01 03:55:00
  TRACK 03 AUDIO
    TITLE "L.O.V.E. In My Car"
    PERFORMER "Bad Boys Blue"
    INDEX 00 07:37:73
    INDEX 01 07:39:70
  TRACK 04 AUDIO
    TITLE "Jungle In My Heart"
    PERFORMER "Bad Boys Blue"
    INDEX 00 11:10:47
    INDEX 01 11:12:30
  TRACK 05 AUDIO
    TITLE "From Heaven To Heartache"
    PERFORMER "Bad Boys Blue"
    INDEX 00 14:51:58
    INDEX 01 14:53:57
  TRACK 06 AUDIO
    TITLE "Lady In Black"
    PERFORMER "Bad Boys Blue"
    INDEX 00 18:26:49
    INDEX 01 18:28:51
  TRACK 07 AUDIO
    TITLE "Don't Walk Away Suzanne (Et Cetera Remix)"
    PERFORMER "Bad Boys Blue"
    INDEX 00 21:54:19
    INDEX 01 21:56:50
  TRACK 08 AUDIO
    TITLE "I'll Be Good"
    PERFORMER "Bad Boys Blue"
    INDEX 00 25:23:30
    INDEX 01 25:25:09
  TRACK 09 AUDIO
    TITLE "A World Without You (Michelle)"
    PERFORMER "Bad Boys Blue"
    INDEX 00 29:05:39
    INDEX 01 29:07:40
  TRACK 10 AUDIO
    TITLE "Queen Of Hearts"
    PERFORMER "Bad Boys Blue"
    INDEX 00 32:32:57
    INDEX 01 32:34:55
  TRACK 11 AUDIO
    TITLE "Come Back And Stay"
    PERFORMER "Bad Boys Blue"
    INDEX 00 35:56:73
    INDEX 01 35:59:22
  TRACK 12 AUDIO
    TITLE "Lovers In The Sand"
    PERFORMER "Bad Boys Blue"
    INDEX 00 40:08:09
    INDEX 01 40:10:46
  TRACK 13 AUDIO
    TITLE "Do What You Do"
    PERFORMER "Bad Boys Blue"
    INDEX 00 43:35:44
    INDEX 01 43:38:43
  TRACK 14 AUDIO
    TITLE "Save Your Love"
    PERFORMER "Bad Boys Blue"
    INDEX 00 47:11:38
    INDEX 01 47:13:25
  TRACK 15 AUDIO
    TITLE "Have You Ever Had A Love Like This"
    PERFORMER "Bad Boys Blue"
    INDEX 00 50:37:52
    INDEX 01 50:39:66
  TRACK 16 AUDIO
    TITLE "Hungry For Love (Rap Version)"
    PERFORMER "Bad Boys Blue"
    INDEX 00 54:16:04
    INDEX 01 54:18:48
  TRACK 17 AUDIO
    TITLE "Kiss You All Over, Baby"
    PERFORMER "Bad Boys Blue"
    INDEX 00 57:39:08
    INDEX 01 57:41:30
  TRACK 18 AUDIO
    TITLE "S.O.S. For Love"
    PERFORMER "Bad Boys Blue"
    INDEX 00 61:20:12
    INDEX 01 61:22:05
  TRACK 19 AUDIO
    TITLE "Love Really Hurts Without You"
    PERFORMER "Bad Boys Blue"
    INDEX 00 64:47:10
    INDEX 01 64:49:68
  TRACK 20 AUDIO
    TITLE "House Of Silence"
    PERFORMER "Bad Boys Blue"
    INDEX 00 68:04:03
    INDEX 01 68:05:53
  TRACK 21 AUDIO
    TITLE "Don't Want Your Love"
    PERFORMER "Bad Boys Blue"
    INDEX 00 71:37:43
    INDEX 01 71:39:27
  TRACK 22 AUDIO
    TITLE "Sweet Little Things"
    PERFORMER "Bad Boys Blue"
    INDEX 00 75:18:27
    INDEX 01 75:19:63

Сверка с АккуратРип

[CUETools log; Date: 09.02.2014 22:57:11; Version: 2.1.4]
Pregap length 00:00:32.
[CTDB TOCID: XxkTldt.JnSsXIdhyE.E00FcaI0-] disk not present in database.
CUETools DB: XxkTldt.JnSsXIdhyE.E00FcaI0- has been uploaded.
[AccurateRip ID: 003ecfbd-03e9bdb9-2d126816] found.
Track   [  CRC   |   V2   ] Status
01     [21e0ec96|fbdfaa5d] (2+0/2) Accurately ripped
02     [b780889b|363a63b2] (2+0/2) Accurately ripped
03     [4a7e3e29|0a70ef04] (2+0/2) Accurately ripped
04     [3fd9d09b|d5438cbe] (2+0/2) Accurately ripped
05     [0b1849b1|3e1c7e73] (2+0/2) Accurately ripped
06     [6840e2e8|44e299ed] (2+0/2) Accurately ripped
07     [955025af|7b58fd2f] (2+0/2) Accurately ripped
08     [80b2113c|6d556d9c] (2+0/2) Accurately ripped
09     [a47dd6b0|759284a8] (2+0/2) Accurately ripped
10     [5c783b2a|de86911a] (2+0/2) Accurately ripped
11     [c0316f7e|94b1bb1d] (2+0/2) Accurately ripped
12     [6b019592|e6a541f4] (2+0/2) Accurately ripped
13     [a10fff3d|fd2557a5] (2+0/2) Accurately ripped
14     [764dc236|8eea95cb] (2+0/2) Accurately ripped
15     [d3a0a179|49119bfd] (2+0/2) Accurately ripped
16     [3ac0a3a8|5ef0e89d] (2+0/2) Accurately ripped
17     [67667c25|1b1697af] (2+0/2) Accurately ripped
18     [4ff32071|e9080ad1] (2+0/2) Accurately ripped
19     [a6607190|21422e1f] (2+0/2) Accurately ripped
20     [5bc48017|1cd15c42] (2+0/2) Accurately ripped
21     [37ccbd7d|f7b6cdc6] (2+0/2) Accurately ripped
22     [76f0ee78|d61997a5] (2+0/2) Accurately ripped
Track Peak [ CRC32  ] [W/O NULL] [  LOG   ]
--  100,0 [5F30E208] [07906D1B]   CRC32
01   99,0 [BEE6DDA4] [77C7E803]
02  100,0 [B7397631] [874922ED]
03   98,6 [E3CF810C] [A38A7A9E]
04  100,0 [76389449] [9FFDF7BF]
05   99,0 [139FEB9F] [31892F4E]
06   99,0 [5C6F6900] [CBA62228]
07   99,0 [DA6DCBD5] [52248352]
08   99,0 [8DB81E45] [1FC8DC67]
09   99,0 [A77B9D82] [06F09953]
10   99,3 [FFE50E8D] [753A7014]
11   99,0 [AAD2000B] [67CDE938]
12   99,0 [2515580C] [B60EAE07]
13   99,7 [7033BD77] [0EA57377]
14   99,6 [A4536CB6] [B16923BA]
15   99,1 [CED2F7F3] [2EE21206]
16   99,0 [C1AADCF7] [122721E6]
17   99,0 [6AC89E21] [6B42C0C9]
18   99,6 [85D00E60] [47C88D1E]
19   99,3 [8A11C5DA] [FA2DBA4B]
20   99,0 [1AEADC9E] [72AB4462]
21   99,9 [1AE568C9] [227F01D1]
22  100,0 [B479CAA1] [09BE5FE6]
Время раздачи: 24/7 (круглосуточно)-
[Профиль] [ЛС]

Создавать темы 13-Авг-2015 10:41 (спустя 7 месяцев 19 дней)

Топик был перенесен из форума Зарубежная в форум Technopop, Eurodance, Disco
sergej644
 
Показать сообщения:    

Текущее время: Сегодня 14:52

Часовой пояс: GMT



Вы не можете начинать темы
Вы не можете отвечать на сообщения
Вы не можете редактировать свои сообщения
Вы не можете удалять свои сообщения
Вы не можете голосовать в опросах
Вы не можете прикреплять файлы к сообщениям
Вы не можете скачивать файлы