(EuroDisco) Bad Boys Blue - 30- The New Best Of Album (2CD) - 2015 [FLAC, image+.cue, lossless]

 
Автор Сообщение

sergej644 ®

Пол:

Стаж: 4 года 11 месяцев

Сообщений: 6038

Откуда: Soviet Union



Награды: Нет

Торрент-статистика

Создавать темы 16-Дек-2015 17:18

[Цитировать]

-Bad Boys Blue / 30- The New Best Of Album (2CD)-- Год издания: 2015
Страна: Germany
Жанр: EuroDisco
Продолжительность: 02:17:16-Лейбл издания: Coconut Music Ltd.
Тип альбома: Compilation
Страна-выпуска диска: Germany
Номер по каталогу: COC 518
Формат: FLAC
Битрейт аудио: lossless
Тип рипа: image+.cue
Наличие сканов в содержимом раздачи: да
-

Трэклист

CD 1 / 01:07:14

01. You're A Woman (Reloaded) (03:07)
02. Pretty Young Girl (Reloaded) (04:41)
03. Hot Girls - Bad Boys (Reloaded) (04:23)
04. Kisses And Tears (My One And Only) (Reloaded) (04:01)
05. I Wanna Hear Your Heartbeat (Sunday Girl) (Reloaded)k05 (04:24)
06. Mon Amie (New Hit Version) (04:55)
07. Kiss You All Over, Baby (Reloaded) (04:07)
08. Come Back And Stay (Reloaded) (04:23)
09. Why (Misty Eyes) (New Hit Version) (05:13)
10. A World Without You (Michelle) (Reloaded) (03:20)
11. Lady In Black (Reloaded) (03:48)
12. Show Me The Way (New Hit Version) (04:30)
13. A Train To Nowhere (Completely Remixed) (04:34)
14. How I Need You (Reloaded) (03:43)
15. 30th Anniversary Megamix (08:11)

CD 2 / 01:10:03

01. Queen Of Hearts (Reloaded) (04:30)
02. Jungle In My Heart (Reloaded) (03:28)
03. Baby Blue (New Hit Version) (03:50)
04. The Woman I Love (New Hit Version) (03:39)
05. Aquarda Tu Amor (Spanish Extended Remix '99 of Save Your Love) (05:07)
06. I Wanna Hear Your Heartbeat (Sunday Girl) (The Original 1st Recording Session) (03:59)
07. Where Are You Now (The Original 1st Recording Session) ('Come Back And Stay' ... (05:52)
08. Jungle In My Heart (Original Instrumental Version) (03:59)
09. Back To The Future (Level 2 Remix) (05:19)
10. Never Never (Bonus Track) (03:54)
11. Out Of The Blue (Bonus Track) (04:05)
12. Have You Ever Had A Love Like This (A Mix Like This) (06:54)
13. You're A Woman (Alternative Mix) (03:48)
14. I Wanna Hear Your Heartbeat (Sunday Girl) (Electro Mix '98) (04:07)
15. Jingle (Promotional Advertisement with Trevor, Andrew & John) (07:37)
-

Лог создания рипа

CD 1

Exact Audio Copy V1.1 from 23. June 2015
Отчёт EAC об извлечении, выполненном 25. октября 2015, 14:30
Bad Boys Blue / 30: The New Best Of Album [CD1]
Дисковод: SONY    BD RW BDX-S600U   Adapter: 1  ID: 1
Режим чтения                 : Достоверность
Использование точного потока : Да
Отключение кэша аудио        : Да
Использование указателей C2  : Нет
Коррекция смещения при чтении                     : 48
Способность читать области Lead-in и Lead-out     : Нет
Заполнение пропущенных сэмплов тишиной            : Да
Удаление блоков с тишиной в начале и конце        : Нет
При вычислениях CRC использовались нулевые сэмплы : Да
Интерфейс                                         : Встроенный Win32-интерфейс для Win NT/2000
Выходной формат          : Пользовательский кодировщик
Выбранный битрейт        : 128 kBit/s
Качество                 : Высокий
Добавление ID3-тега      : Нет
Утилита сжатия           : C:\Program Files (x86)\FLAC\flac.exe
Дополнительные параметры : -V -8 -T "Date=%year%" -T "Genre=%genre%" %source%
TOC извлечённого CD
     Трек |   Старт  | Длительность | Начальный сектор | Конечный сектор
    ---------------------------------------------------------------------
       1  |  0:00.00 |    3:06.46   |           0      |      13995
       2  |  3:06.46 |    4:40.29   |       13996      |      35024
       3  |  7:47.00 |    4:22.53   |       35025      |      54727
       4  | 12:09.53 |    4:00.66   |       54728      |      72793
       5  | 16:10.44 |    4:23.42   |       72794      |      92560
       6  | 20:34.11 |    4:54.43   |       92561      |     114653
       7  | 25:28.54 |    4:06.58   |      114654      |     133161
       8  | 29:35.37 |    4:22.36   |      133162      |     152847
       9  | 33:57.73 |    5:12.10   |      152848      |     176257
      10  | 39:10.08 |    3:19.14   |      176258      |     191196
      11  | 42:29.22 |    3:48.00   |      191197      |     208296
      12  | 46:17.22 |    4:29.65   |      208297      |     228536
      13  | 50:47.12 |    4:33.40   |      228537      |     249051
      14  | 55:20.52 |    3:42.15   |      249052      |     265716
      15  | 59:02.67 |    8:10.69   |      265717      |     302535
Характеристики диапазона извлечения и сообщения об ошибках
Выбранный диапазон
     Имя файла D:\torrentfilm.net\Жанр - Disco\Bad Boys Blue - 30- The New Best Of Album\Bad Boys Blue - 30- The New Best Of Album [CD1]\Bad Boys Blue - 30- The New Best Of Album [CD1].wav
     Пиковый уровень 97.0 %
     Скорость извлечения 6.7 X
     Качество диапазона 99.9 %
     CRC теста 97FFEA99
     CRC копии 97FFEA99
     Копирование... OK
Ошибок не произошло
AccurateRip: сводка
Трек  1  точность не определена (достоверность 2)  [4FFD8156], AccurateRip вернул [5A51B819]  (AR v2)
Трек  2  точность не определена (достоверность 2)  [B104359A], AccurateRip вернул [34A917CA]  (AR v2)
Трек  3  точность не определена (достоверность 2)  [185528C8], AccurateRip вернул [D6B1914E]  (AR v2)
Трек  4  точность не определена (достоверность 2)  [72BD5368], AccurateRip вернул [2C387815]  (AR v2)
Трек  5  точность не определена (достоверность 2)  [934D0701], AccurateRip вернул [79A41037]  (AR v2)
Трек  6  точность не определена (достоверность 2)  [8DF85568], AccurateRip вернул [2A29FB7E]  (AR v2)
Трек  7  точность не определена (достоверность 2)  [9E0C9575], AccurateRip вернул [039C8542]  (AR v2)
Трек  8  точность не определена (достоверность 2)  [20E8EF2F], AccurateRip вернул [55C33BF9]  (AR v2)
Трек  9  точность не определена (достоверность 2)  [CE3F2733], AccurateRip вернул [A40F9CB1]  (AR v2)
Трек 10  точность не определена (достоверность 2)  [5A342F7F], AccurateRip вернул [E680A3F9]  (AR v2)
Трек 11  точность не определена (достоверность 2)  [B1FA57A1], AccurateRip вернул [E41F7580]  (AR v2)
Трек 12  точность не определена (достоверность 2)  [0C3932A5], AccurateRip вернул [61332159]  (AR v2)
Трек 13  точность не определена (достоверность 2)  [0C019E35], AccurateRip вернул [50B09D4D]  (AR v2)
Трек 14  точность не определена (достоверность 2)  [4B95F7A8], AccurateRip вернул [BAD8EBDE]  (AR v2)
Трек 15  точность не определена (достоверность 2)  [B33A88CD], AccurateRip вернул [16ACC4EF]  (AR v2)
Ни один трек не прошёл проверки на точность
В вашей базе может быть иной вариант штамповки диска
Конец отчёта

CD 2

Exact Audio Copy V1.1 from 23. June 2015
Отчёт EAC об извлечении, выполненном 25. октября 2015, 12:42
Bad Boys Blue / 30: The New Best Of Album [CD2]
Дисковод: SONY    BD RW BDX-S600U   Adapter: 1  ID: 1
Режим чтения                 : Достоверность
Использование точного потока : Да
Отключение кэша аудио        : Да
Использование указателей C2  : Нет
Коррекция смещения при чтении                     : 48
Способность читать области Lead-in и Lead-out     : Нет
Заполнение пропущенных сэмплов тишиной            : Да
Удаление блоков с тишиной в начале и конце        : Нет
При вычислениях CRC использовались нулевые сэмплы : Да
Интерфейс                                         : Встроенный Win32-интерфейс для Win NT/2000
Выходной формат          : Пользовательский кодировщик
Выбранный битрейт        : 128 kBit/s
Качество                 : Высокий
Добавление ID3-тега      : Нет
Утилита сжатия           : C:\Program Files (x86)\FLAC\flac.exe
Дополнительные параметры : -V -8 -T "Date=%year%" -T "Genre=%genre%" %source%
TOC извлечённого CD
     Трек |   Старт  | Длительность | Начальный сектор | Конечный сектор
    ---------------------------------------------------------------------
       1  |  0:00.00 |    4:29.35   |           0      |      20209
       2  |  4:29.35 |    3:27.55   |       20210      |      35789
       3  |  7:57.15 |    3:49.69   |       35790      |      53033
       4  | 11:47.09 |    3:38.39   |       53034      |      69422
       5  | 15:25.48 |    5:06.51   |       69423      |      92423
       6  | 20:32.24 |    3:58.37   |       92424      |     110310
       7  | 24:30.61 |    5:51.47   |      110311      |     136682
       8  | 30:22.33 |    3:58.28   |      136683      |     154560
       9  | 34:20.61 |    5:18.36   |      154561      |     178446
      10  | 39:39.22 |    3:54.00   |      178447      |     195996
      11  | 43:33.22 |    4:04.62   |      195997      |     214358
      12  | 47:38.09 |    6:53.51   |      214359      |     245384
      13  | 54:31.60 |    3:47.43   |      245385      |     262452
      14  | 58:19.28 |    4:06.23   |      262453      |     280925
      15  | 62:25.51 |    7:36.27   |      280926      |     315152
Характеристики диапазона извлечения и сообщения об ошибках
Выбранный диапазон
     Имя файла D:\torrentfilm.net\Жанр - Disco\Bad Boys Blue - 30- The New Best Of Album\Bad Boys Blue - 30- The New Best Of Album [CD2]\Bad Boys Blue - 30- The New Best Of Album [CD2].wav
     Пиковый уровень 97.1 %
     Скорость извлечения 6.8 X
     Качество диапазона 100.0 %
     CRC теста AF0BD3F1
     CRC копии AF0BD3F1
     Копирование... OK
Ошибок не произошло
AccurateRip: сводка
Трек  1  точность не определена (достоверность 2)  [4E89FB17], AccurateRip вернул [DF0FB827]  (AR v2)
Трек  2  точность не определена (достоверность 2)  [F91F3E78], AccurateRip вернул [9DE0775C]  (AR v2)
Трек  3  точность не определена (достоверность 2)  [4D54FE68], AccurateRip вернул [8E23C31D]  (AR v2)
Трек  4  точность не определена (достоверность 2)  [9C1267E3], AccurateRip вернул [DFBDEBCE]  (AR v2)
Трек  5  точность не определена (достоверность 2)  [7836EF9B], AccurateRip вернул [1C8C2C76]  (AR v2)
Трек  6  точность не определена (достоверность 2)  [1522E92F], AccurateRip вернул [BECB4D4A]  (AR v2)
Трек  7  точность не определена (достоверность 2)  [52B16837], AccurateRip вернул [3D5DA25F]  (AR v2)
Трек  8  точность не определена (достоверность 2)  [006C5348], AccurateRip вернул [CAE7BE6E]  (AR v2)
Трек  9  точность не определена (достоверность 2)  [79885091], AccurateRip вернул [80B6F705]  (AR v2)
Трек 10  точность не определена (достоверность 2)  [671823B9], AccurateRip вернул [46F7B274]  (AR v2)
Трек 11  точность не определена (достоверность 2)  [6D8A3FE3], AccurateRip вернул [CD4A0A19]  (AR v2)
Трек 12  точность не определена (достоверность 2)  [453AA862], AccurateRip вернул [FA1022EA]  (AR v2)
Трек 13  точность не определена (достоверность 2)  [201D8FB2], AccurateRip вернул [AB8643CE]  (AR v2)
Трек 14  точность не определена (достоверность 2)  [67F3461C], AccurateRip вернул [3F7189B0]  (AR v2)
Трек 15  точность не определена (достоверность 2)  [FD4E9EB8], AccurateRip вернул [A3DAAFF0]  (AR v2)
Ни один трек не прошёл проверки на точность
В вашей базе может быть иной вариант штамповки диска
Конец отчёта

Индексная карта (non-compilant .cue)

CD 1

REM GENRE Disco
REM DATE 2015
REM DISCID D80FC10F
REM COMMENT "ExactAudioCopy v1.1"
PERFORMER "Bad Boys Blue"
TITLE "30: The New Best Of Album [CD1]"
FILE "Bad Boys Blue - 30- The New Best Of Album [CD1].wav" WAVE
  TRACK 01 AUDIO
    TITLE "You're A Woman (Reloaded)"
    PERFORMER "Bad Boys Blue"
    INDEX 01 00:00:00
  TRACK 02 AUDIO
    TITLE "Pretty Young Girl (Reloaded)"
    PERFORMER "Bad Boys Blue"
    INDEX 01 03:06:46
  TRACK 03 AUDIO
    TITLE "Hot Girls - Bad Boys (Reloaded)"
    PERFORMER "Bad Boys Blue"
    INDEX 01 07:47:00
  TRACK 04 AUDIO
    TITLE "Kisses And Tears (My One And Only) (Reloaded)"
    PERFORMER "Bad Boys Blue"
    INDEX 01 12:09:53
  TRACK 05 AUDIO
    TITLE "I Wanna Hear Your Heartbeat (Sunday Girl) (Reloaded)k05"
    PERFORMER "Bad Boys Blue"
    INDEX 01 16:10:44
  TRACK 06 AUDIO
    TITLE "Mon Amie (New Hit Version)"
    PERFORMER "Bad Boys Blue"
    INDEX 01 20:34:11
  TRACK 07 AUDIO
    TITLE "Kiss You All Over, Baby (Reloaded)"
    PERFORMER "Bad Boys Blue"
    INDEX 01 25:28:54
  TRACK 08 AUDIO
    TITLE "Come Back And Stay (Reloaded)"
    PERFORMER "Bad Boys Blue"
    INDEX 01 29:35:37
  TRACK 09 AUDIO
    TITLE "Why (Misty Eyes) (New Hit Version)"
    PERFORMER "Bad Boys Blue"
    INDEX 01 33:57:73
  TRACK 10 AUDIO
    TITLE "A World Without You (Michelle) (Reloaded)"
    PERFORMER "Bad Boys Blue"
    INDEX 01 39:10:08
  TRACK 11 AUDIO
    TITLE "Lady In Black (Reloaded)"
    PERFORMER "Bad Boys Blue"
    INDEX 01 42:29:22
  TRACK 12 AUDIO
    TITLE "Show Me The Way (New Hit Version)"
    PERFORMER "Bad Boys Blue"
    INDEX 01 46:17:22
  TRACK 13 AUDIO
    TITLE "A Train To Nowhere (Completely Remixed)"
    PERFORMER "Bad Boys Blue"
    INDEX 01 50:47:12
  TRACK 14 AUDIO
    TITLE "How I Need You (Reloaded)"
    PERFORMER "Bad Boys Blue"
    INDEX 01 55:20:52
  TRACK 15 AUDIO
    TITLE "30th Anniversary Megamix"
    PERFORMER "Bad Boys Blue"
    INDEX 01 59:02:67

CD 2

REM GENRE Disco
REM DATE 2015
REM DISCID CC106A0F
REM COMMENT "ExactAudioCopy v1.1"
PERFORMER "Bad Boys Blue"
TITLE "30: The New Best Of Album [CD2]"
FILE "Bad Boys Blue - 30- The New Best Of Album [CD2].wav" WAVE
  TRACK 01 AUDIO
    TITLE "Queen Of Hearts (Reloaded)"
    PERFORMER "Bad Boys Blue"
    INDEX 01 00:00:00
  TRACK 02 AUDIO
    TITLE "Jungle In My Heart (Reloaded)"
    PERFORMER "Bad Boys Blue"
    INDEX 01 04:29:35
  TRACK 03 AUDIO
    TITLE "Baby Blue (New Hit Version)"
    PERFORMER "Bad Boys Blue"
    INDEX 01 07:57:15
  TRACK 04 AUDIO
    TITLE "The Woman I Love (New Hit Version)"
    PERFORMER "Bad Boys Blue"
    INDEX 01 11:47:09
  TRACK 05 AUDIO
    TITLE "Aquarda Tu Amor (Spanish Extended Remix '99 of Save Your Love)"
    PERFORMER "Bad Boys Blue"
    INDEX 01 15:25:48
  TRACK 06 AUDIO
    TITLE "I Wanna Hear Your Heartbeat (Sunday Girl) (The Original 1st Recording Session)"
    PERFORMER "Bad Boys Blue"
    INDEX 01 20:32:24
  TRACK 07 AUDIO
    TITLE "Where Are You Now (The Original 1st Recording Session) ('Come Back And Stay' ..."
    PERFORMER "Bad Boys Blue"
    INDEX 01 24:30:61
  TRACK 08 AUDIO
    TITLE "Jungle In My Heart (Original Instrumental Version)"
    PERFORMER "Bad Boys Blue"
    INDEX 01 30:22:33
  TRACK 09 AUDIO
    TITLE "Back To The Future (Level 2 Remix)"
    PERFORMER "Bad Boys Blue"
    INDEX 01 34:20:61
  TRACK 10 AUDIO
    TITLE "Never Never (Bonus Track)"
    PERFORMER "Bad Boys Blue"
    INDEX 01 39:39:22
  TRACK 11 AUDIO
    TITLE "Out Of The Blue (Bonus Track)"
    PERFORMER "Bad Boys Blue"
    INDEX 01 43:33:22
  TRACK 12 AUDIO
    TITLE "Have You Ever Had A Love Like This (A Mix Like This)"
    PERFORMER "Bad Boys Blue"
    INDEX 01 47:38:09
  TRACK 13 AUDIO
    TITLE "You're A Woman (Alternative Mix)"
    PERFORMER "Bad Boys Blue"
    INDEX 01 54:31:60
  TRACK 14 AUDIO
    TITLE "I Wanna Hear Your Heartbeat (Sunday Girl) (Electro Mix '98)"
    PERFORMER "Bad Boys Blue"
    INDEX 01 58:19:28
  TRACK 15 AUDIO
    TITLE "Jingle (Promotional Advertisement with Trevor, Andrew & John)"
    PERFORMER "Bad Boys Blue"
    INDEX 01 62:25:51

Лог Audiochecker

CD 1

AUDIOCHECKER v2.0 beta (build 457) - by Dester - opdester@freemail.hu
~~~~~~~~~~~~~~~~~~~~~~~~~~~~~~~~~~
-=== НЕ РЕДАКТИРУЙТЕ ЭТОТ ФАЙЛ! ===-
Путь: ...\Bad Boys Blue - 30- The New Best Of Album [CD1]
1 -=- Bad Boys Blue - 30- The New Best Of Album [CD1].flac -=- CDDA (100%)
124892276

CD 2

AUDIOCHECKER v2.0 beta (build 457) - by Dester - opdester@freemail.hu
~~~~~~~~~~~~~~~~~~~~~~~~~~~~~~~~~~
-=== НЕ РЕДАКТИРУЙТЕ ЭТОТ ФАЙЛ! ===-
Путь: ...\Bad Boys Blue - 30- The New Best Of Album [CD2]
1 -=- Bad Boys Blue - 30- The New Best Of Album [CD2].flac -=- CDDA (100%)
125744244
--Не забываем говорить
[Профиль] [ЛС]
Показать сообщения:    

Текущее время: Сегодня 14:35

Часовой пояс: GMT



Вы не можете начинать темы
Вы не можете отвечать на сообщения
Вы не можете редактировать свои сообщения
Вы не можете удалять свои сообщения
Вы не можете голосовать в опросах
Вы не можете прикреплять файлы к сообщениям
Вы не можете скачивать файлы