Baby's Gang - Challenger (2008) [APE|Lossless]<Italo-Disco>

 
Автор Сообщение

sergej644 ®

Пол:

Стаж: 4 года 11 месяцев

Сообщений: 6041

Откуда: Soviet Union



Награды: Нет

Торрент-статистика

Создавать темы 24-Дек-2014 22:30

[Цитировать]

-Baby's Gang - Challenger (2008)- Год: 2008
Лейбл: ESonCD
Каталог #: 200811-2
Жанр: Italo-Disco
Продолжительность: 01:11:31
Кодек: APE
Битрейт: Lossless
Тип битрейта: image +.cue
Треклист:
01. Challenger 5:16
02. Jamin 5:56
03. Happy Birthday (To My Mammy) 4:55
04. Happy Song 5:35
05. My Little Japanese Boy 4:22
06. Step By Step 4:32
07. America 4:26
08. Challenger (Instrumental Mix) 3:04
09. Disco Maniac 5:45
10. Let's Dance In The Music 4:39
11. America (Swedish Remix) 6:41
12. Challenger (Swedish Remix) 5:29
13. Happy Song (Original Version '83) 5:30
14. Ice Cream (Instrumental) 5:41

Отчёт ЕАС&#58;

Exact Audio Copy V0.99 prebeta 5 from 4. May 2009
Отчёт EAC об извлечении, выполненном 4. сентября 2009, 19:01
Baby's Gang / Challenger
Дисковод: Optiarc DVD RW AD-5200A Adapter: 0 ID: 0
Режим чтения : Достоверность
Использование точного потока : Да
Отключение кэша аудио : Да
Использование указателей C2 : Нет
Коррекция смещения при чтении : 48
Способность читать области Lead-in и Lead-out : Нет
Заполнение пропущенных сэмплов тишиной : Да
Удаление блоков с тишиной в начале и конце : Нет
При вычислениях CRC использовались нулевые сэмплы : Да
Интерфейс : Установленный внешний ASPI-интерфейс
Выходной формат : Внутренние WAV-операции
Формат сэмплов : 44.100 Гц; 16 бит; стерео
TOC извлечённого CD
Трек | Старт | Длительность | Начальный сектор | Конечный сектор
---------------------------------------------------------------------
1 | 0:00.00 | 5:16.64 | 0 | 23763
2 | 5:16.64 | 5:56.58 | 23764 | 50521
3 | 11:13.47 | 4:55.04 | 50522 | 72650
4 | 16:08.51 | 5:35.55 | 72651 | 97830
5 | 21:44.31 | 4:22.67 | 97831 | 117547
6 | 26:07.23 | 4:32.40 | 117548 | 137987
7 | 30:39.63 | 4:26.70 | 137988 | 158007
8 | 35:06.58 | 3:04.06 | 158008 | 171813
9 | 38:10.64 | 5:45.60 | 171814 | 197748
10 | 43:56.49 | 4:39.70 | 197749 | 218743
11 | 48:36.44 | 6:41.06 | 218744 | 248824
12 | 55:17.50 | 5:29.41 | 248825 | 273540
13 | 60:47.16 | 5:30.52 | 273541 | 298342
14 | 66:17.68 | 5:13.37 | 298343 | 321854
Характеристики диапазона извлечения и сообщения об ошибках
Выбранный диапазон
Имя файла E:\Baby's Gang - Challenger\Baby's Gang - Challenger.wav
Пиковый уровень 100.0 %
Качество диапазона 100.0 %
CRC теста 72B7BC49
CRC копии 72B7BC49
Копирование... OK
Ошибок не произошло
AccurateRip: сводка
Трек 1 точное извлечение (доверие 1) [5C3C3089]
Трек 2 точное извлечение (доверие 1) [27069F1B]
Трек 3 точное извлечение (доверие 1) [FB605144]
Трек 4 точное извлечение (доверие 1) [CD2AEDC1]
Трек 5 точное извлечение (доверие 1) [712A04E7]
Трек 6 точное извлечение (доверие 1) [949F3B01]
Трек 7 точное извлечение (доверие 1) [DADC9C59]
Трек 8 точное извлечение (доверие 1) [09B72D81]
Трек 9 точное извлечение (доверие 1) [A99E9E6A]
Трек 10 точное извлечение (доверие 1) [808BB1BF]
Трек 11 точное извлечение (доверие 1) [088DC634]
Трек 12 точное извлечение (доверие 1) [6189990D]
Трек 13 точное извлечение (доверие 1) [A404684F]
Трек 14 точное извлечение (доверие 1) [791B4D31]
Все треки извлечены точно
Конец отчёта

Отчёт auCDtect Task manager&#58;

-----------------------
DON'T MODIFY THIS FILE
-----------------------
PERFORMER: auCDtect Task Manager, ver. 1.5.1RC4 build 1.5.1.5
Copyright (c) 2008-2010 y-soft. All rights reserved
http://y-soft.org
ANALYZER: auCDtect: CD records authenticity detector, version 0.8.2
Copyright (c) 2004 Oleg Berngardt. All rights reserved.
Copyright (c) 2004 Alexander Djourik. All rights reserved.
FILE: Baby's Gang - Challenger.ape
  Size: 503016808 Hash: 8E9E77443DCAAB9BBC7C1B14C88EAE8F Accuracy: -m0
  Conclusion: CDDA 100%
  Signature: 78A4AE89166625497AFCCA3B39975908329E5518

Содержание индексной карты (.CUE&#41;&#58;

REM GENRE Italo-Disco
REM DATE 2008
REM DISCID E010C30E
REM COMMENT "ExactAudioCopy v0.99pb5"
PERFORMER "Baby's Gang"
TITLE "Challenger"
FILE "Baby's Gang - Challenger.ape" WAVE
  TRACK 01 AUDIO
    TITLE "Challenger"
    PERFORMER "Baby's Gang"
    FLAGS DCP
    INDEX 01 00:00:00
  TRACK 02 AUDIO
    TITLE "Jamin"
    PERFORMER "Baby's Gang"
    FLAGS DCP
    INDEX 00 05:14:64
    INDEX 01 05:16:64
    INDEX 02 06:08:07
    INDEX 03 06:08:09
    INDEX 04 06:50:60
    INDEX 05 06:54:47
    INDEX 06 07:30:61
    INDEX 07 08:11:52
    INDEX 08 08:21:62
    INDEX 09 08:28:47
    INDEX 10 08:35:04
    INDEX 11 08:54:15
    INDEX 12 09:01:50
    INDEX 13 09:07:36
    INDEX 14 09:09:26
    INDEX 15 09:14:00
    INDEX 16 09:20:66
    INDEX 17 09:20:67
    INDEX 18 09:28:30
    INDEX 19 10:07:20
    INDEX 20 10:19:57
    INDEX 21 10:25:41
    INDEX 22 10:31:64
  TRACK 03 AUDIO
    TITLE "Happy Birthday (To My Mammy)"
    PERFORMER "Baby's Gang"
    FLAGS DCP
    INDEX 00 11:11:47
    INDEX 01 11:13:47
    INDEX 02 11:34:04
    INDEX 03 12:24:05
    INDEX 04 12:29:13
    INDEX 05 12:40:19
    INDEX 06 12:45:37
    INDEX 07 13:32:22
    INDEX 08 13:34:35
    INDEX 09 13:37:52
    INDEX 10 15:17:26
    INDEX 11 15:57:71
  TRACK 04 AUDIO
    TITLE "Happy Song"
    PERFORMER "Baby's Gang"
    FLAGS DCP
    INDEX 00 16:06:51
    INDEX 01 16:08:51
    INDEX 02 16:46:00
    INDEX 03 16:46:01
    INDEX 04 16:46:03
    INDEX 05 17:13:01
    INDEX 06 17:24:63
    INDEX 07 19:04:22
    INDEX 08 20:00:71
    INDEX 09 20:01:66
    INDEX 10 20:45:12
  TRACK 05 AUDIO
    TITLE "My Little Japanese Boy"
    PERFORMER "Baby's Gang"
    FLAGS DCP
    INDEX 00 21:42:31
    INDEX 01 21:44:31
  TRACK 06 AUDIO
    TITLE "Step By Step"
    PERFORMER "Baby's Gang"
    FLAGS DCP
    INDEX 00 26:05:23
    INDEX 01 26:07:23
    INDEX 02 27:21:09
    INDEX 03 27:21:11
    INDEX 04 28:05:41
    INDEX 05 28:05:52
    INDEX 06 28:47:18
    INDEX 07 30:33:15
    INDEX 08 30:34:26
  TRACK 07 AUDIO
    TITLE "America"
    PERFORMER "Baby's Gang"
    FLAGS DCP
    INDEX 00 30:37:63
    INDEX 01 30:39:63
    INDEX 02 32:42:65
    INDEX 03 34:20:32
    INDEX 04 34:32:51
    INDEX 05 34:49:23
  TRACK 08 AUDIO
    TITLE "Challenger (Instrumental Mix)"
    PERFORMER "Baby's Gang"
    FLAGS DCP
    INDEX 00 35:04:58
    INDEX 01 35:06:58
  TRACK 09 AUDIO
    TITLE "Disco Maniac"
    PERFORMER "Baby's Gang"
    FLAGS DCP
    INDEX 00 38:08:64
    INDEX 01 38:10:64
    INDEX 02 38:23:07
    INDEX 03 39:47:51
    INDEX 04 39:57:22
    INDEX 05 42:08:71
    INDEX 06 42:10:03
    INDEX 07 42:23:19
    INDEX 08 43:52:38
  TRACK 10 AUDIO
    TITLE "Let's Dance In The Music"
    PERFORMER "Baby's Gang"
    FLAGS DCP
    INDEX 00 43:54:49
    INDEX 01 43:56:49
    INDEX 02 45:18:17
  TRACK 11 AUDIO
    TITLE "America (Swedish Remix)"
    PERFORMER "Baby's Gang"
    FLAGS DCP
    INDEX 00 48:34:44
    INDEX 01 48:36:44
    INDEX 02 52:33:23
    INDEX 03 54:27:26
    INDEX 04 54:44:09
  TRACK 12 AUDIO
    TITLE "Challenger (Swedish Remix)"
    PERFORMER "Baby's Gang"
    FLAGS DCP
    INDEX 00 55:15:50
    INDEX 01 55:17:50
    INDEX 02 55:25:23
    INDEX 03 55:36:17
    INDEX 04 55:38:22
    INDEX 05 55:47:73
    INDEX 06 56:19:25
    INDEX 07 56:21:23
    INDEX 08 56:22:32
    INDEX 09 57:34:48
    INDEX 10 57:34:49
    INDEX 11 60:03:22
    INDEX 12 60:36:46
  TRACK 13 AUDIO
    TITLE "Happy Song (Original Version '83)"
    PERFORMER "Baby's Gang"
    FLAGS DCP
    INDEX 00 60:45:16
    INDEX 01 60:47:16
    INDEX 02 60:50:08
    INDEX 03 61:37:45
    INDEX 04 61:38:44
    INDEX 05 61:42:41
    INDEX 06 61:42:43
    INDEX 07 63:00:46
    INDEX 08 63:11:04
    INDEX 09 63:12:28
    INDEX 10 63:13:14
    INDEX 11 63:15:53
    INDEX 12 65:06:58
    INDEX 13 66:01:20
  TRACK 14 AUDIO
    TITLE "Ice Cream (Instrumental)"
    PERFORMER "Baby's Gang"
    FLAGS DCP
    INDEX 00 66:15:68
    INDEX 01 66:17:68
    INDEX 02 66:20:30
    INDEX 03 66:23:17
    INDEX 04 66:23:54
    INDEX 05 66:34:26
    INDEX 06 67:48:71
    INDEX 07 67:52:68
    INDEX 08 68:08:49
    INDEX 09 68:08:71
    INDEX 10 68:08:74
    INDEX 11 68:32:61
    INDEX 12 68:32:64
    INDEX 13 68:55:57
    INDEX 14 69:00:65
    INDEX 15 69:17:37
    INDEX 16 69:35:32
    INDEX 17 69:46:03
    INDEX 18 70:16:18
    INDEX 19 70:51:51
[Профиль] [ЛС]

Создавать темы 13-Авг-2015 10:44 (спустя 7 месяцев 20 дней)

Топик был перенесен из форума Зарубежная в форум Technopop, Eurodance, Disco
sergej644
 
Показать сообщения:    

Текущее время: Сегодня 12:50

Часовой пояс: GMT



Вы не можете начинать темы
Вы не можете отвечать на сообщения
Вы не можете редактировать свои сообщения
Вы не можете удалять свои сообщения
Вы не можете голосовать в опросах
Вы не можете прикреплять файлы к сообщениям
Вы не можете скачивать файлы